<?xml version="1.0" standalone="no"?>
<!DOCTYPE svg PUBLIC "-//W3C//DTD SVG 1.1//EN" "http://www.w3.org/Graphics/SVG/1.1/DTD/svg11.dtd" >
<svg>
<metadata>
Created by FontForge 20110222 at Mon Mar  7 13:23:05 2011
 By www-data
Unicode Fonts for Ancient Scripts; George Douros; 2009
</metadata>
<defs>
<font id="Anaktoria" horiz-adv-x="1518" >
  <font-face 
    font-family="Anaktoria"
    font-weight="400"
    font-stretch="normal"
    units-per-em="2048"
    panose-1="2 2 6 2 9 8 5 9 10 3"
    ascent="1638"
    descent="-410"
    x-height="861"
    cap-height="1290"
    bbox="-608 -700 2050 1896"
    underline-thickness="20"
    underline-position="-432"
    unicode-range="U+0020-2122"
  />
    <missing-glyph />
    <glyph glyph-name="space" unicode=" " horiz-adv-x="500" 
 />
    <glyph glyph-name="exclam" unicode="!" horiz-adv-x="512" 
d="M638 1270q0 -52 -32 -144l-273 -785q-8 -22 -38 -22q-39 0 -39 18q0 8 14 78l138 682q36 178 76 238q26 39 65 39q89 0 89 -104zM352 103q0 -54 -33.5 -93.5t-87.5 -39.5q-48 0 -78.5 35t-30.5 84q0 54 33.5 93.5t86.5 39.5q49 0 79.5 -34.5t30.5 -84.5z" />
    <glyph glyph-name="quotedbl" unicode="&#x22;" horiz-adv-x="688" 
d="M647 1554q0 -30 -52 -107q-39 -58 -124 -289q-25 -69 -60 -69q-32 0 -32 36q0 44 42 146q46 114 53 151q2 37 17 108q24 66 82 66q74 0 74 -42zM327 1554q0 -30 -52 -107q-39 -58 -124 -289q-25 -69 -60 -69q-32 0 -32 36q0 44 42 146q46 114 53 151q2 37 17 108
q24 66 82 66q74 0 74 -42z" />
    <glyph glyph-name="numbersign" unicode="#" horiz-adv-x="982" 
d="M972 733q0 -7 -24 -94q-7 -27 -35 -27h-126l-59 -192h133q23 0 23 -13q0 -7 -24 -94q-7 -27 -35 -27h-138l-141 -457q-5 -17 -23 -17h-56q-14 0 -14 13q0 1 142 461h-260l-141 -457q-5 -17 -23 -17h-56q-14 0 -14 13q0 1 142 461h-120q-23 0 -23 13q0 7 24 94q7 27 35 27
h125l59 192h-132q-23 0 -23 13q0 7 24 94q7 27 35 27h138l141 459q5 17 37 19q-38 -2 42 -2q14 0 14 -12q0 -2 -142 -464h260l141 459q5 17 37 19q-38 -2 42 -2q14 0 14 -11q0 -3 -142 -465h120q23 0 23 -13zM696 612h-262l-59 -192h263z" />
    <glyph glyph-name="dollar" unicode="$" horiz-adv-x="1030" 
d="M950 323q0 -153 -118 -247q-100 -80 -261 -100v-210q0 -50 -50 -50t-50 50v204q-60 1 -130 15q-82 17 -152 48q-103 48 -103 104v97q0 49 43 49q31 0 39 -23q5 -24 9 -48q22 -77 119 -120q78 -34 175 -36v496q-192 84 -266 142q-125 99 -125 241q0 158 121 257
q107 90 270 104v216q0 50 50 50t50 -50v-217q108 -12 196 -41q117 -38 117 -87v-118q0 -49 -43 -49q-31 0 -37.5 23.5t-10.5 47.5q-7 24 -27 49q-61 75 -195 91v-517q187 -78 259 -136q120 -95 120 -235zM471 737v473q-94 -15 -160 -68q-76 -61 -76 -146q0 -151 236 -259z
M793 267q0 135 -222 240v-442q222 42 222 202z" />
    <glyph glyph-name="percent" unicode="%" horiz-adv-x="1458" 
d="M717 1105q0 -217 -110 -399t-256 -182q-109 0 -169 105q-50 87 -50 202q0 209 103 381q113 188 260 188q110 0 171 -98q51 -82 51 -197zM1416 1272q0 -6 -5 -13l-1244 -1630q-17 -22 -40 -22h-67q-18 0 -18 14q0 7 5 14l1244 1630q16 21 38 21h71q16 0 16 -14zM1380 166
q0 -217 -110 -399t-256 -182q-109 0 -169 105q-50 87 -50 202q0 209 103 381q113 188 260 188q110 0 171 -98q51 -82 51 -197zM608 1077q0 190 -139 190q-96 0 -164 -117q-65 -111 -65 -266q0 -81 28 -147q36 -85 103 -85q91 0 166 136q71 130 71 289zM1272 138
q0 190 -140 190q-96 0 -164 -117q-65 -111 -65 -266q0 -81 28 -147q36 -85 103 -85q91 0 166 136q72 130 72 289z" />
    <glyph glyph-name="ampersand" unicode="&#x26;" horiz-adv-x="1452" 
d="M1468 734q0 -265 -113 -265q-36 0 -117 57q-56 41 -113 82q-38 -133 -78 -221q-82 -180 -226 -291q-157 -121 -343 -121q-196 0 -315 135q-113 129 -113 328q0 159 77.5 291.5t215.5 214.5q69 41 119 41q119 0 119 -143q0 -22 -7 -54l5 -2q258 230 258 428q0 16 -7 46
t-7 45q0 67 81 67q82 0 82 -115q0 -188 -302 -467q-226 -208 -482 -358q25 -144 118 -228q96 -87 240 -87q197 0 338 175q115 143 166 359q-93 70 -164 70q-90 0 -90 -92q0 -52 20 -94q15 -31 15 -35q0 -41 -76 -41q-84 0 -84 106q0 53 37 103q40 54 115 102q83 53 143 53
q99 0 321 -172q39 -30 58 -30q39 0 39 210q0 30 27 30q43 0 43 -127zM462 766q0 115 -80 115q-65 0 -125 -97q-64 -104 -64 -245q0 -16 3 -35q162 90 258 186q8 30 8 76z" />
    <glyph glyph-name="quotesingle" unicode="'" horiz-adv-x="368" 
d="M327 1554q0 -30 -52 -107q-39 -58 -124 -289q-25 -69 -60 -69q-32 0 -32 36q0 44 42 146q46 114 53 151q2 37 17 108q24 66 82 66q74 0 74 -42z" />
    <glyph glyph-name="parenleft" unicode="(" horiz-adv-x="904" 
d="M876 -218q0 -35 -48 -35q-19 0 -33 5q-271 94 -448.5 337.5t-177.5 528.5t178 530q177 242 448 336q14 5 33 5q48 0 48 -35q0 -31 -114 -90q-200 -104 -333 -312q-136 -212 -136 -434t136 -434q133 -208 333 -312q114 -59 114 -90z" />
    <glyph glyph-name="parenright" unicode=")" horiz-adv-x="904" 
d="M735 618q0 -285 -177.5 -528.5t-448.5 -337.5q-14 -5 -33 -5q-48 0 -48 35q0 31 114 90q200 104 333 312q136 212 136 434t-136 434q-133 208 -333 312q-114 59 -114 90q0 35 48 35q19 0 33 -5q271 -94 448 -336q178 -245 178 -530z" />
    <glyph glyph-name="asterisk" unicode="*" horiz-adv-x="699" 
d="M649 1223q0 -42 -87 -42q-98 0 -98 -71v-38q0 -60 -2 -76q-7 -49 -42 -49q-44 0 -44 102v32q0 78 -42 78q-36 0 -68 -6q-72 -12 -80 -12q-27 0 -27 35q0 19 62 45.5t62 57.5q0 23 -55 75t-55 87q0 36 34 36q15 0 66 -52t77 -52q22 0 59.5 64.5t67.5 64.5q28 0 28 -38
q0 -32 -26.5 -79.5t-26.5 -61.5q0 -56 58 -56q75 0 96 -4q43 -8 43 -40z" />
    <glyph glyph-name="plus" unicode="+" horiz-adv-x="1106" 
d="M1016 421q0 -26 -26 -26h-369v-369q0 -26 -26 -26h-74q-26 0 -26 26v369h-369q-26 0 -26 26v74q0 26 26 26h369v369q0 26 26 26h74q26 0 26 -26v-369h369q26 0 26 -26v-74z" />
    <glyph glyph-name="comma" unicode="," horiz-adv-x="512" 
d="M486 49q0 -122 -121 -218q-99 -78 -235 -113q-25 10 -25 38q0 7 4 19q76 28 132 78q69 62 69 131q0 53 -51 81.5t-51 69.5q0 45 34 76t80 31q74 0 121 -61q43 -56 43 -132z" />
    <glyph glyph-name="hyphen" unicode="-" horiz-adv-x="524" 
d="M524 395h-524v117h524v-117z" />
    <glyph glyph-name="period" unicode="." horiz-adv-x="512" 
d="M474 127q0 -61 -37 -103q-39 -45 -99 -45q-106 0 -106 111q0 63 38.5 107.5t100.5 44.5q103 0 103 -115z" />
    <glyph glyph-name="slash" unicode="/" horiz-adv-x="798" 
d="M1191 1489l-1266 -1742h-135l1266 1742h135z" />
    <glyph glyph-name="zero" unicode="0" horiz-adv-x="1075" 
d="M998 670q0 -288 -129 -491q-133 -208 -329 -208q-255 0 -377 231q-93 177 -93 448q0 250 90 435q117 244 350 244q191 0 338 -198q150 -202 150 -461zM831 667q0 188 -64 336q-85 195 -248 195q-309 0 -309 -544q0 -187 59 -340q80 -208 237 -208q183 0 266 202
q59 145 59 359z" />
    <glyph glyph-name="one" unicode="1" horiz-adv-x="806" 
d="M719 45q0 -23 -19 -41.5t-42 -16.5q-181 19 -223 19q-50 0 -112 -5q-143 -14 -132 -14q-17 0 -29.5 17t-12.5 34q0 33 38 48q79 31 81 33q51 30 72 96q15 46 15 122l2 769l-203 -131q-11 -7 -26 -7q-53 0 -53 40q0 71 130 155l175 114q51 33 72 33q61 0 61 -71
q0 -17 -1 -51.5t-1 -51.5v-640q0 -320 14 -344.5t109 -49.5q85 -21 85 -57z" />
    <glyph glyph-name="two" unicode="2" horiz-adv-x="955" 
d="M868 111q0 -113 -130 -113h-37q-24 1 -36 1h-213q-38 0 -113.5 -2t-113.5 -2q-131 0 -131 29q0 107 149 309l276 348q149 194 149 282q0 229 -191 229q-69 0 -179.5 -88.5t-135.5 -88.5q-19 0 -36.5 17.5t-17.5 36.5q0 66 99 136q78 56 161 82q72 23 136 23
q146 0 240 -66q106 -75 106 -216q0 -132 -84 -258q-55 -81 -188 -209q-142 -138 -190 -201q-62 -82 -62 -130q0 -28 26 -47q23 -18 52 -18q54 0 160.5 1.5t160.5 1.5q143 0 143 -57z" />
    <glyph glyph-name="three" unicode="3" horiz-adv-x="757" 
d="M693 1094q0 -82 -71 -165q-18 -20 -131 -123q-70 -64 -70 -103q0 -59 79 -141.5t79 -159.5q0 -230 -238 -474q-112 -114 -221 -114q-20 0 -41 31q-20 28 -20 50q0 55 96 93q133 53 178 95q96 90 96 269q0 119 -60 170q-26 23 -112 51q-60 19 -60 59q0 52 79 117
q73 58 145 117q79 76 79 155q0 119 -100 119q-18 0 -52.5 -5t-51.5 -5q-43 0 -43 39q0 68 84 107q66 31 144 31q89 0 150.5 -62t61.5 -151z" />
    <glyph glyph-name="four" unicode="4" horiz-adv-x="1226" 
d="M1183 533q0 -69 -49 -69q-44 0 -132.5 5t-132.5 5q-48 0 -63 -41q-8 -23 -8 -82q0 -48 5.5 -143.5t5.5 -143.5q0 -79 -11 -111q-20 -57 -83 -57q-78 0 -78 105q0 56 11.5 168.5t11.5 168.5q0 70 -3 88q-10 56 -51 56q-55 0 -165.5 -6.5t-165.5 -6.5q-202 0 -202 80
q0 46 52 110q70 73 206 217q253 268 393 398q33 31 94 31q87 0 87 -53q0 -37 -36 -105t-36 -129q0 -57 -2 -171t-2 -171q0 -69 95 -69q28 0 83 4t83 4q93 0 93 -82zM673 975q0 89 -42 89q-27 0 -183 -171t-156 -200q0 -56 34 -72q29 -14 178 -14h54q59 0 82.5 22t23.5 82
q0 44 4.5 132t4.5 132z" />
    <glyph glyph-name="five" unicode="5" horiz-adv-x="942" 
d="M878 1220q0 -75 -75 -99q-48 -16 -159 -16q-65 0 -223 50q-47 0 -88.5 -47.5t-41.5 -95.5q0 -64 95 -132q156 -112 177 -132q95 -94 95 -221q0 -147 -113 -308q-88 -125 -221 -233q-114 -92 -150 -92h-21q-35 0 -35 25q0 59 92 131q159 123 172 137q93 94 93 207
q0 220 -78 323q-40 53 -146 106q-79 39 -79 99q0 23 47 124l78 164q50 73 162 85q95 7 191 15l160 33q32 0 52 -48q16 -38 16 -75z" />
    <glyph glyph-name="six" unicode="6" horiz-adv-x="973" 
d="M1001 1235q0 -59 -53 -90l-337 -194q-167 -98 -259 -190q-72 -72 -119 -167q-53 -105 -53 -196q0 -119 115 -193q100 -65 226 -65q101 0 158 85q42 63 42 122q0 106 -52 181q-21 31 -98 98q-52 46 -52 81q0 127 86 127q87 0 186 -112t99 -202q0 -177 -129 -352
q-138 -188 -309 -188q-374 0 -374 360q0 335 349 626q219 183 298 212q16 12 36 44q8 14 26.5 43.5t64.5 39.5q24 5 78 5q71 0 71 -75z" />
    <glyph glyph-name="seven" unicode="7" horiz-adv-x="1084" 
d="M1039 1218q0 -9 -82 -108q-39 -47 -93 -116q-138 -177 -214 -303l-114 -189q-70 -119 -99 -182q-41 -92 -41 -146q0 -39 43 -116q22 -38 22 -71q0 -37 -58 -58q-43 -16 -88 -16q-69 0 -69 42q0 14 13 35q6 11 6 16q0 192 150 469q62 116 113 194q67 95 174 254
q58 93 58 131q0 44 -80 53q-15 2 -112 2q-53 0 -135 -3l-86 -2q-80 0 -133 -32q-24 -15 -49 -15q-53 0 -53 90q0 32 23 122q24 96 37 96q42 0 90 -41.5t108 -41.5q49 0 146.5 -3t146.5 -3q71 0 124 2l208 7q44 0 44 -67z" />
    <glyph glyph-name="eight" unicode="8" horiz-adv-x="983" 
d="M816 332q0 -156 -118 -256q-111 -94 -270 -94q-139 0 -218 111q-70 99 -70 244q0 213 218 354q-172 202 -172 327q0 143 105 221q95 71 242 71q266 0 266 -292q0 -100 -62 -190q-9 -13 -91 -121q91 -87 127 -159q43 -87 43 -216zM651 985q0 99 -23 148q-32 69 -112 69
q-68 0 -118 -38q-55 -43 -55 -109q0 -101 39 -184q49 -106 139 -106q62 0 99 80q31 66 31 140zM661 313q0 99 -46 189q-53 102 -125 102q-80 0 -141 -99q-55 -90 -55 -181q0 -88 37 -154q46 -79 128 -79q81 0 143 71q59 69 59 151z" />
    <glyph glyph-name="nine" unicode="9" horiz-adv-x="1055" 
d="M943 910q0 -177 -140 -384q-113 -167 -280 -319l-204 -177q-18 -17 -70 -39t-75 -22q-75 0 -75 72q0 56 67 77q85 16 122 28q140 112 218 187q271 261 271 480q0 151 -86 249q-90 103 -238 103q-57 0 -109 -48.5t-52 -104.5q0 -309 269 -386q54 -15 54 -38q0 -60 -36 -81
q-27 -16 -93 -16q-154 0 -249 119q-75 95 -75 183q0 213 99 355q113 162 317 162q164 0 267 -119q98 -114 98 -281z" />
    <glyph glyph-name="colon" unicode=":" horiz-adv-x="512" 
d="M524 756q0 -57 -34 -96q-36 -42 -92 -42q-96 0 -96 101q0 59 35.5 100.5t93.5 41.5q93 0 93 -105zM474 127q0 -61 -37 -103q-39 -45 -99 -45q-106 0 -106 111q0 63 38.5 107.5t100.5 44.5q103 0 103 -115z" />
    <glyph glyph-name="semicolon" unicode=";" horiz-adv-x="512" 
d="M524 756q0 -57 -34 -96q-36 -42 -92 -42q-96 0 -96 101q0 59 35.5 100.5t93.5 41.5q93 0 93 -105zM486 49q0 -122 -121 -218q-99 -78 -235 -113q-25 10 -25 38q0 7 4 19q76 28 132 78q69 62 69 131q0 53 -51 81.5t-51 69.5q0 45 34 76t80 31q74 0 121 -61q43 -56 43 -132
z" />
    <glyph glyph-name="less" unicode="&#x3c;" horiz-adv-x="1106" 
d="M1085 67q0 -6 -3 -12l-31 -67q-7 -16 -23 -16q-6 0 -12 3l-900 420q-16 7 -16 26v74q0 19 16 26l900 420q6 3 12 3q16 0 23 -16l31 -67q3 -6 3 -12q0 -16 -15 -23l-791 -368l791 -368q15 -7 15 -23z" />
    <glyph glyph-name="equal" unicode="=" horiz-adv-x="1106" 
d="M1016 631q0 -26 -26 -26h-864q-26 0 -26 26v74q0 26 26 26h864q26 0 26 -26v-74zM1016 211q0 -26 -26 -26h-864q-26 0 -26 26v74q0 26 26 26h864q26 0 26 -26v-74z" />
    <glyph glyph-name="greater" unicode="&#x3e;" horiz-adv-x="1106" 
d="M1006 421q0 -19 -16 -26l-900 -420q-6 -3 -12 -3q-16 0 -23 16l-31 67q-3 6 -3 12q0 16 15 23l791 368l-791 368q-15 7 -15 23q0 6 3 12l31 67q7 16 23 16q6 0 12 -3l900 -420q16 -7 16 -26v-74z" />
    <glyph glyph-name="question" unicode="?" horiz-adv-x="642" 
d="M769 1051q0 -174 -123 -240q-7 -3 -230 -65q-123 -34 -123 -133q0 -119 120 -119q103 0 103 -66q0 -36 -24.5 -66.5t-59.5 -30.5q-96 0 -180 117q-77 109 -77 210q0 28 6 53q31 130 143 183q100 31 200 61q108 36 131 123q4 15 4 34q0 52 -40 84q-36 29 -90 29h-24
q-16 -1 -24 -1q-131 0 -131 77q0 83 92 83q145 0 236 -94t91 -239zM378 110q0 -53 -33 -91.5t-85 -38.5q-49 0 -80 35.5t-31 85.5q0 53 33 92t85 39q50 0 80.5 -36t30.5 -86z" />
    <glyph glyph-name="at" unicode="@" horiz-adv-x="1652" 
d="M1617 601q0 -227 -153 -425q-162 -211 -374 -211q-77 0 -118 30q-37 27 -66 98q-10 28 -37 92q-168 -185 -316 -185q-170 0 -170 298q0 188 108.5 348t243.5 160q106 0 174 -140q12 -25 41 -83q17 50 50 145q46 133 120 133q71 0 71 -99q0 -54 -40 -123q-12 -20 -76 -110
q-117 -164 -117 -292q0 -67 73 -111q63 -38 133 -38q151 0 259 203q93 174 93 343q0 222 -145 356q-139 130 -360 130q-354 0 -611.5 -261.5t-257.5 -615.5q0 -236 157.5 -393.5t388.5 -157.5q149 0 316 55q171 56 284 146q0 -135 -233 -223q-185 -70 -350 -70
q-289 0 -485 190t-196 479q0 380 286 658q284 275 665 275q272 0 454 -163q188 -169 188 -438zM885 472q0 63 -58 106q-52 40 -116 40q-131 0 -201 -121q-58 -99 -58 -240q0 -112 95 -112q139 0 238.5 93.5t99.5 233.5z" />
    <glyph glyph-name="A" unicode="A" horiz-adv-x="1420" 
d="M1368 43q0 -56 -27 -56q-29 0 -79 7q-116 14 -149 14q-27 0 -114 -13q-46 -8 -77 -8q-68 0 -68 64q0 22 39 41q53 26 72 47q38 42 38 119q0 74 -31 144q-40 88 -105 88q-21 0 -63.5 2.5t-64.5 2.5q-23 0 -66 -2q-46 -3 -67 -3q-90 -1 -159 -167q-52 -123 -52 -166
q0 -39 78 -61.5t78 -52.5q0 -53 -66 -53q-34 0 -79 5q-104 9 -141 9q-57 0 -147 -14h-24q-70 0 -70 45q0 50 70 64q95 20 113 34q84 68 138 203l146 361q84 211 147 376q51 137 81 189q42 73 81 73q47 0 70 -78q12 -49 38 -145q32 -97 88 -275q45 -153 80 -285
q19 -77 58 -232q34 -126 83 -167q15 -13 95 -47q56 -25 56 -63zM887 670q0 25 -43 171q-54 181 -100 181q-33 0 -103 -203q-47 -139 -47 -174q0 -49 56 -58q3 -1 96 -1h38q65 0 81 12q22 15 22 72z" />
    <glyph glyph-name="B" unicode="B" horiz-adv-x="1230" 
d="M1124 333q0 -172 -120 -271q-108 -89 -263 -89q-54 0 -123 4q-157 9 -191 9q-35 0 -70 -3l-105 -9q-85 0 -85 34q0 45 86 76q42 15 42 35q0 108 1 170l5 354q0 120 -5 291l-4 198q0 15 -78.5 41.5t-78.5 80.5q0 50 69 50q16 0 119 -9q58 -5 104 -5q48 0 144.5 5.5
t144.5 5.5q96 0 206 -75q126 -85 126 -195q0 -100 -42.5 -190.5t-100.5 -119.5q98 -33 160 -149q59 -109 59 -239zM889 1011q0 203 -263 203q-129 0 -159 -57q-18 -34 -18 -183q0 -132 4 -156q18 -96 94 -96q176 0 253 56q89 66 89 233zM984 368q0 117 -91 198t-219 81
q-116 0 -140 -6q-69 -19 -69 -100v-356q0 -127 204 -127q134 0 224.5 88t90.5 222z" />
    <glyph glyph-name="C" unicode="C" horiz-adv-x="1283" 
d="M1233 1112q0 -9 -20.5 -98.5t-23.5 -95.5q-13 -21 -37 -21q-41 0 -41 20q0 10 3 28.5t3 27.5q0 80 -78 154q-106 100 -276 100q-229 0 -358 -179q-116 -160 -116 -396q0 -233 119 -407q134 -199 356 -199q98 0 199 74q42 32 151 174q10 14 22 14q11 0 30 -13t19 -24
q0 -7 -30 -93t-37 -101q-13 -26 -36 -40q-129 -77 -312 -77q-279 0 -476 187q-201 191 -201 468q0 291 202.5 493.5t493.5 202.5q277 0 435 -178q9 -10 9 -21z" />
    <glyph glyph-name="D" unicode="D" horiz-adv-x="1479" 
d="M1407 671q0 -279 -189 -480q-193 -206 -469 -206q-109 0 -243.5 11t-146.5 11q-29 0 -87 -8.5t-87 -8.5q-43 0 -43 46q0 18 71 54t74 140q5 92 15 257q5 111 5 172v376q0 83 -35 128q-20 25 -66 48q-36 18 -36 35q0 44 64 44q30 0 59 -4q86 -9 99 -9q29 0 149 11.5
t227 11.5q259 0 449 -185.5t190 -443.5zM1221 603q0 244 -122 420q-135 194 -357 194q-84 0 -165 -24q-106 -30 -106 -126q0 -71 -16 -293q-8 -118 -8 -198q0 -130 1 -245l2 -121q0 -85 93 -114q78 -24 200 -24q216 0 349 153q129 148 129 378z" />
    <glyph glyph-name="E" unicode="E" horiz-adv-x="1219" 
d="M1067 249q0 -20 -4 -60.5t-4 -60.5q0 -140 -117 -140q-63 0 -188 9t-188 9q-64 0 -191.5 -10.5t-191.5 -10.5q-60 0 -60 49q0 27 88 67q73 33 95 160q7 101 14.5 200.5t7.5 175.5q0 -32 -9 388q-2 110 -55 147q-15 11 -95 28q-64 15 -64 39q0 18 32 38q29 18 49 18
q64 0 192 -8.5t192 -8.5q92 0 166 4q240 13 239 13q37 0 37 -48q0 -16 -1 -48t-1 -48t4 -46.5t4 -46.5q0 -58 -31 -58q-16 0 -40 50q-37 77 -85 107q-61 37 -155 37q-116 0 -191 -41q-46 -25 -46 -254q0 -147 31 -182q37 -41 190 -41q10 0 31 -1t31 -1q84 0 125 33
q18 15 42 62q18 33 46 33q21 0 21 -29q0 -23 -8.5 -69.5t-8.5 -69.5q0 -21 2.5 -62t2.5 -62q0 -53 -19 -53q-29 0 -54 46q-35 61 -43 69q-44 41 -155 41q-161 0 -201 -16t-41 -71q0 -21 -2 -96q-1 -58 -1 -95q0 -159 37 -198q46 -49 245 -49q11 0 33 -2t33 -2q67 0 103 25
q33 23 61 85q50 112 78 112q18 0 18 -57z" />
    <glyph glyph-name="F" unicode="F" horiz-adv-x="1124" 
d="M1081 1058q0 -80 -24 -80q-30 0 -49 34l-26 58q-41 76 -80 98q-47 27 -186 27q-101 0 -132 -5q-74 -12 -113 -60q-13 -15 -17 -127q-4 -96 -4 -297q58 3 257 17q99 7 107 7q59 0 83 -40q14 -22 26 -93q10 -58 10 -107q0 -80 -24 -80q-30 0 -49 34l-26 58q-39 72 -71 96
q-39 29 -114 29q-78 0 -104 -6q-51 -12 -80 -59q-12 -19 -12 -117q0 -57 8 -159q10 -124 22 -144q15 -25 99 -54q71 -25 71 -74q0 -37 -86 -37q-32 0 -94.5 13t-93.5 13q-29 0 -85 -9.5t-83 -9.5q-72 0 -72 56q0 34 50 64q62 36 76 59q27 45 27 474q0 406 -36 488
q-15 34 -88 64q-67 28 -67 46q0 64 51 64q49 0 102 -9q107 -18 106 -18q100 0 301 13t301 13q59 0 83 -40q14 -22 26 -93q10 -58 10 -107z" />
    <glyph glyph-name="G" unicode="G" horiz-adv-x="1348" 
d="M1321 495q0 -17 -36 -35q-46 -23 -66 -48q-35 -45 -35 -128v-98q0 -87 -115 -154q-122 -72 -299 -72q-279 0 -476 187q-201 191 -201 468q0 291 202.5 493.5t493.5 202.5q277 0 435 -178q9 -10 9 -21q0 -9 -20.5 -98.5t-23.5 -95.5q-13 -21 -37 -21q-41 0 -41 20
q0 10 3 28.5t3 27.5q0 80 -78 154q-106 100 -276 100q-229 0 -358 -179q-116 -160 -116 -396q0 -233 119 -407q134 -199 356 -199q94 0 178 49q94 54 94 133v88q0 99 -122 124q-47 10 -47 44q0 55 42 55q32 0 95 -6.5t95 -6.5q13 0 99 9q29 4 58 4q65 0 65 -44z" />
    <glyph glyph-name="H" unicode="H" horiz-adv-x="1512" 
d="M1410 51q0 -61 -71 -61q-25 0 -94 10q-38 5 -64 5q-27 0 -100 -7q-43 -4 -67 -4q-50 0 -50 63q0 17 36 29q50 16 67 30q36 28 36 86q0 49 -3.5 148t-3.5 149q0 83 -64 85q-294 7 -299 7q-48 0 -143 -5t-142 -5q-62 0 -62 -89q0 -74 -3 -171l-2 -112q0 -103 107 -121
q51 -9 51 -48q0 -46 -50 -46q-33 0 -63 3q-91 9 -105 9q-20 0 -94 -7q-42 -4 -61 -4q-68 0 -68 45q0 19 33 33q46 19 61 33q33 31 33 90q0 77 12 231q11 149 11 230l-1 390q0 83 -37 123q-19 21 -69 41q-36 15 -36 35q0 46 59 46q30 0 90.5 -7t90.5 -7q31 0 91 7t90 7
q43 0 43 -48q0 -19 -44 -33q-57 -19 -81 -40q-44 -41 -44 -124q0 -41 -2 -115q-3 -80 -3 -114q-1 -126 51 -126q49 0 146.5 -4t146.5 -4q52 0 154.5 4t154.5 4q29 0 50 35q19 31 18 61l-4 262q-1 82 -36 120q-20 21 -65 36q-35 11 -35 29q0 53 53 53q27 0 81.5 -7.5
t81.5 -7.5q30 0 104 9q41 6 71 6q42 0 42 -34q0 -41 -44 -56q-100 -35 -100 -161q0 -63 -17 -249q-8 -93 -8 -147q0 -74 6.5 -221.5t6.5 -220.5q0 -56 40 -84q16 -10 76 -29q41 -14 41 -35z" />
    <glyph glyph-name="I" unicode="I" horiz-adv-x="763" 
d="M614 1235q0 -34 -47 -44q-51 -10 -82 -57q-30 -43 -30 -97v-736q0 -173 98 -205q44 -14 44 -52q0 -54 -55 -54q-29 0 -87 8.5t-86 8.5q-29 0 -87 -8.5t-87 -8.5q-43 0 -43 46q0 18 72 55q55 28 73 96q10 41 10 132v716q0 121 -78 157q-69 32 -69 54q0 44 64 44
q30 0 59 -4q86 -9 99 -9q32 0 95 6.5t95 6.5q42 0 42 -55z" />
    <glyph glyph-name="J" unicode="J" horiz-adv-x="763" 
d="M614 1235q0 -34 -47 -44q-51 -10 -82 -57q-30 -43 -30 -97v-756q0 -316 -72 -473q-105 -227 -382 -227q-76 0 -130.5 59t-54.5 135q0 66 54 66q1 0 48 -52t108 -52q191 0 251 197q30 102 30 354v747q0 121 -78 157q-69 32 -69 54q0 44 64 44q30 0 59 -4q86 -9 99 -9
q32 0 95 6.5t95 6.5q42 0 42 -55z" />
    <glyph glyph-name="K" unicode="K" horiz-adv-x="1477" 
d="M1373 49q0 -60 -60 -60q-29 0 -124 19q-53 11 -89 11q-51 0 -92 -7q-94 -17 -117 -17q-71 0 -71 53q0 28 57.5 44t57.5 39q0 49 -133 171l-109 100q-21 20 -79 89q-80 94 -108 94q-50 0 -50 -73q0 -50 2 -154l3 -108q0 -76 49 -115q23 -19 91 -43q50 -17 50 -41
q0 -57 -103 -57q-40 0 -132 10q-46 6 -84 6q-17 0 -69 -10q-29 -5 -48 -5q-84 0 -84 48q0 19 44 38q63 27 81 41q44 33 44 86q0 -2 1 65t1 136v488q0 60 -1.5 138.5t-1.5 95.5q0 22 -73 52t-73 59q0 49 90 49q26 0 80 -5.5t80 -5.5q31 0 92.5 4.5t91.5 4.5q32 0 32 -47
q0 -31 -74 -56t-74 -50q0 -63 -4 -189t-4 -190q0 -65 19 -65q30 0 86 66q13 16 38 47q49 57 78 88q23 24 125 132q19 18 56 56q29 30 29 57q0 24 -52 51.5t-52 51.5q0 51 68 51q27 0 80.5 -8t79.5 -8q56 0 137 14q44 7 72 7q63 0 63 -45q0 -31 -77 -55q-123 -39 -154 -55
q-55 -29 -121 -101l-117 -126q-38 -40 -113 -120q-64 -67 -64 -106q0 -14 93 -105l169 -167q100 -103 184 -180q109 -101 133 -107q60 -15 84 -23q66 -22 66 -58z" />
    <glyph glyph-name="L" unicode="L" horiz-adv-x="1099" 
d="M1056 249q0 -21 -2 -48l-6 -73q0 -140 -117 -140q-21 0 -214 12q-106 6 -162 6q-61 0 -185 -8t-185 -8q-43 0 -43 46q0 18 72 55q57 29 73 139q20 136 20 329v476q0 83 -35 128q-20 25 -66 48q-36 18 -36 35q0 44 64 44q30 0 59 -4q86 -9 99 -9q32 0 95 6.5t95 6.5
q42 0 42 -55q0 -34 -47 -44q-86 -17 -106 -124q-16 -86 -16 -223v-504q0 -159 40 -203q47 -49 235 -49q11 0 31.5 -1.5t29.5 -2.5q72 -1 114 29q28 20 55 81q49 112 78 112q18 0 18 -57z" />
    <glyph glyph-name="M" unicode="M" horiz-adv-x="1733" 
d="M1653 48q0 -22 -19 -46t-39 -24q-23 0 -69.5 8.5t-70.5 8.5q-23 0 -69.5 -8.5t-69.5 -8.5q-98 0 -98 51q0 35 71.5 84.5t71.5 129.5q0 6 9 162q5 97 5 144q0 55 -4 143q-5 110 -5 143q-2 75 -47 75q-18 0 -81 -120q-30 -58 -132 -269q-84 -175 -143 -280
q-15 -27 -69 -152q-38 -86 -52 -86q-31 0 -61 83q-9 22 -65 198l-118 242q-180 368 -209 368q-28 0 -42 -109q-9 -72 -9 -134q0 -141 6 -438q1 -32 71.5 -84.5t70.5 -83.5q0 -56 -49 -56q-4 0 -83 11q-40 5 -65 5q-22 0 -90 -7q-40 -4 -55 -4q-40 0 -40 63q0 10 36 39
q45 37 67 67q36 51 36 116q13 119 13 323q0 75 -5 195q-5 152 -6 195q-2 96 -44 154l-97 123q0 48 51 48q7 0 55 -16l65 -21q50 -8 141 -35q30 -13 48 -55q7 -17 24 -82q6 -23 46 -105q32 -61 93 -183t103 -216q59 -131 90 -189q43 -82 62 -82q30 0 75 70q35 56 90 174
l113 243q65 140 107 243q8 19 37 129q11 39 19 49q18 20 120 50q97 28 133 28q38 0 38 -34q0 -15 -53 -70.5t-53 -82.5q0 -138 -2 -302q-5 -293 -5 -292l9 -301q3 -87 73 -124t70 -65z" />
    <glyph glyph-name="N" unicode="N" horiz-adv-x="1539" 
d="M1468 1260q0 -27 -76.5 -76.5t-76.5 -104.5q0 -115 -3 -235q-4 -217 -4 -210v-13q0 -35 2 -217l3 -238q0 -30 15.5 -84t15.5 -79q0 -43 -51 -43q-74 0 -209 175q-43 55 -92 120l-122 158q-41 53 -136 173q-30 38 -80 98l-78 94q-24 27 -69 82q-73 91 -99 91
q-20 0 -33 -122q-11 -94 -11 -160v-23q0 -39 2 -192q1 -94 3 -252q0 -53 69.5 -98t69.5 -67q0 -52 -30 -52q-11 2 -87 16q-46 9 -78 9q-29 0 -83 -9t-78 -9q-37 0 -37 42q0 16 43 42q57 34 78 56q43 44 43 107q0 68 2 225l2 178q0 68 -3 203l-2 180q0 76 -46 122
q-33 32 -101 96q0 18 14 37t31 19q26 0 132 -27l135 -35q10 -3 43 -50q14 -19 41 -58q45 -66 115 -159q98 -131 216 -276q44 -54 99 -126l106 -136q47 -60 106 -132q12 -15 27 -15q32 0 31 68l-2 383q0 114 -3 227l-4 154q0 37 -77.5 72.5t-77.5 67.5q0 36 26 36
q33 0 96.5 -10t95.5 -10q25 0 71.5 10t70.5 10q45 0 45 -33z" />
    <glyph glyph-name="O" unicode="O" 
d="M1446 663q0 -286 -194 -492q-198 -211 -482 -211q-279 0 -476 187q-201 191 -201 468q0 291 202.5 493.5t493.5 202.5q267 0 462 -190.5t195 -457.5zM1260 596q0 249 -126 430q-140 201 -371 201t-361 -183q-113 -161 -113 -392q0 -139 50 -271q54 -144 149 -230
q116 -105 276 -105q229 0 367 163q129 153 129 387z" />
    <glyph glyph-name="P" unicode="P" horiz-adv-x="1120" 
d="M1007 970q0 -253 -223 -385q-84 -49 -148 -49h-18q-40 0 -54 4q-23 7 -23 27q0 15 56 35q37 13 74 25q168 83 168 305q0 113 -88.5 192t-203.5 79q-111 0 -111 -59q0 -73 -4 -161q-12 -241 -12 -333q0 -71 5.5 -212.5t5.5 -212.5q0 -63 49 -101q10 -8 93 -49
q49 -25 49 -57q0 -34 -46 -34q-35 0 -104 9.5t-104 9.5q-49 0 -87 -4q-114 -13 -128 -13q-46 0 -46 34q0 21 41 46q59 36 77 54q41 41 41 103q0 66 4.5 197.5t4.5 197.5q0 73 -5 201q-5 143 -6 200q-1 91 -38 141q-22 31 -67 54q-35 19 -35 31q0 54 64 54q35 0 100.5 -11.5
t95.5 -11.5q42 0 124.5 4.5t124.5 4.5q157 0 260 -77q114 -86 114 -238z" />
    <glyph glyph-name="Q" unicode="Q" 
d="M1489 -362q0 -41 -23 -60q-15 -12 -141 -12q-216 0 -353 204q-32 47 -63 95q-42 58 -74 84q-14 11 -65 11q-279 0 -476 187q-201 191 -201 468q0 291 202.5 493.5t493.5 202.5q267 0 462 -190.5t195 -457.5q0 -288 -199 -496q-119 -123 -265 -173q45 -38 136 -157
q83 -110 125.5 -137.5t102.5 -31.5q53 -3 107 -5q36 -3 36 -25zM1260 596q0 249 -126 430q-140 201 -371 201t-361 -183q-113 -161 -113 -392q0 -139 50 -271q54 -144 149 -230q116 -105 276 -105q229 0 367 163q129 153 129 387z" />
    <glyph glyph-name="R" unicode="R" horiz-adv-x="1195" 
d="M1237 40q0 -46 -62 -46q-6 0 -38.5 2t-46.5 2q-8 0 -35.5 -1.5t-44.5 -1.5q-61 0 -118 79l-305 426q-46 64 -46 67q0 15 56 35q37 12 74 25q168 83 168 305q0 113 -90 194q-87 77 -202 77q-111 0 -111 -59q0 -73 -4 -161q-7 -154 -7 -496q0 -44 3 -131t3 -131
q0 -63 50 -101q9 -8 91 -49q50 -25 50 -57q0 -34 -46 -34q-35 0 -104 9.5t-104 9.5q-37 0 -108.5 -8.5t-106.5 -8.5q-46 0 -46 34q0 21 41 46q59 36 77 54q41 42 41 103q0 67 4 201.5t4 201.5q0 75 -4 197q-5 153 -6 196q-3 137 -70 174q-70 39 -70 52q0 54 64 54
q33 0 98 -11.5t98 -11.5q41 0 124.5 4.5t124.5 4.5q158 0 260 -77q114 -85 114 -238q0 -143 -80 -255q-78 -107 -213 -162q13 -17 40 -50q19 -29 100 -146q8 -11 98 -136q28 -39 70 -73q58 -48 98 -48q117 0 117 -60z" />
    <glyph glyph-name="S" unicode="S" horiz-adv-x="1030" 
d="M950 323q0 -176 -153 -272q-129 -81 -316 -81q-65 0 -140 15q-82 17 -152 48q-103 48 -103 104v97q0 49 43 49q31 0 39 -23q5 -24 9 -48q22 -80 124 -122q82 -34 180 -34q116 0 204 47q108 58 108 164q0 127 -185 222q-171 82 -343 164q-185 113 -185 282q0 171 140 272
q125 91 303 91q83 0 206 -33q155 -41 155 -98v-118q0 -49 -43 -49q-31 0 -37.5 23.5t-10.5 47.5q-7 24 -27 49q-77 94 -243 94q-104 0 -190 -56q-98 -64 -98 -162q0 -139 185 -235q172 -79 345 -159q185 -109 185 -279z" />
    <glyph glyph-name="T" unicode="T" horiz-adv-x="1318" 
d="M1264 1093q2 -105 -30 -105q-28 0 -53 45q-33 59 -72 86q-69 46 -201 46q-76 0 -122 -29q-38 -24 -47 -228q-1 -23 -1 -244q0 -90 -2 -208l-3 -120q0 -145 32 -194q11 -19 79 -38q55 -17 55 -66q0 -48 -58 -48q-29 0 -62 5q-89 11 -114 11q-34 0 -77 -4l-114 -10
q-61 0 -61 47q0 32 64 61q72 33 93 171q18 115 18 309q0 72 -3 216t-3 216q0 99 -16 126q-20 33 -94 33q-134 0 -209 -39q-39 -20 -83 -74q-34 -40 -67 -40q-49 0 -49 35q0 33 13 76q14 49 16 72q2 39 8 118q6 47 49 47q9 0 67 -50t125 -50l700 4q50 0 127 63q38 31 67 31
q27 0 27 -193v-41q0 -8 1 -19v-18z" />
    <glyph glyph-name="U" unicode="U" horiz-adv-x="1540" 
d="M1430 1246q0 -13 -68.5 -53.5t-68.5 -157.5v-516q0 -245 -138 -399q-143 -160 -385 -160t-385 160q-138 154 -138 399v516q0 117 -68.5 157.5t-68.5 53.5q0 44 64 44q27 0 79 -6.5t79 -6.5q32 0 95 6.5t95 6.5q42 0 42 -55q0 -25 -52 -46q-65 -27 -81 -47
q-36 -44 -36 -288v-289q0 -204 84 -346q101 -173 291 -173q189 0 291 173q84 142 84 346v289q0 244 -36 288q-16 20 -81 47q-52 21 -52 46q0 55 42 55q32 0 95 -6.5t95 -6.5q26 0 78.5 6.5t78.5 6.5q65 0 65 -44z" />
    <glyph glyph-name="V" unicode="V" horiz-adv-x="1361" 
d="M1329 1231q0 -28 -68 -55q-79 -32 -100 -71q-27 -71 -90 -208q-47 -112 -77 -186q-46 -113 -110 -282q-80 -212 -140 -381q-23 -65 -29 -74q-21 -36 -57 -36q-38 0 -66 110q-49 185 -82 262q-46 108 -98 246q-17 46 -88 243q-55 155 -98 262q-35 88 -106 108
q-59 17 -59 54q0 29 23.5 50t52.5 21q18 0 45 -6q67 -16 84 -16q27 0 74 11.5t68 11.5q39 0 57 -8q31 -15 31 -56q0 -14 -56 -37t-56 -74q0 -40 39 -149q53 -130 151 -392q17 -54 53 -163q30 -87 63 -87q28 0 78 79q41 65 69 135q30 76 83 209q39 99 60 162l34 100
q14 51 14 111q0 34 -61.5 68t-61.5 56q0 51 79 51q22 0 75 -13.5t84 -13.5q26 0 84 12q32 6 50 6q52 0 52 -60z" />
    <glyph glyph-name="W" unicode="W" horiz-adv-x="1911" 
d="M1879 1231q0 -27 -68 -55q-78 -33 -100 -71q-3 -5 -43 -100q-80 -191 -234 -576q-77 -203 -140 -381q-8 -27 -29 -74q-22 -36 -57 -36q-37 0 -59 114q-16 90 -62 267q-63 183 -136 445q-120 -362 -215 -711q-6 -26 -23 -75q-21 -40 -55 -40q-37 0 -66 110q-23 89 -82 262
q-49 115 -98 246q-59 169 -186 505q-35 85 -106 108q-59 20 -59 54q0 29 23.5 50t52.5 21q22 0 65 -11t64 -11q27 0 74.5 11.5t67.5 11.5q88 0 88 -64q0 -14 -56 -37t-56 -74q0 -54 81 -264q55 -139 109 -277q17 -54 53 -163q30 -87 53 -87q51 0 170 407.5t152 407.5
q19 0 44 -99q42 -153 123 -462q65 -257 89 -257q9 0 60 82q42 68 69 135q50 123 143 371q13 33 34 100q14 53 14 111q0 34 -61.5 68t-61.5 56q0 51 79 51q19 0 72.5 -13.5t86.5 -13.5q23 0 67.5 9t66.5 9q52 0 52 -60z" />
    <glyph glyph-name="X" unicode="X" horiz-adv-x="1560" 
d="M1445 1226q0 -61 -138 -61q-56 0 -194 -174q-57 -73 -104 -129l-119 -142q-8 -12 -14 -22q-18 -25 -18 -41q0 -33 37 -83q18 -24 55 -71q19 -29 100 -146q8 -12 98 -136q28 -39 70 -73q58 -48 98 -48q117 0 117 -60q0 -46 -62 -46q-36 0 -108 4t-109 4q-46 0 -87 -2
l-131 -6q-59 0 -59 42q0 43 75 61q36 9 36 28q0 23 -15 50q-3 6 -20 33q-20 32 -54 77q-91 122 -99 134q-16 25 -36 52.5t-42 27.5q-18 0 -97 -93q-174 -205 -174 -272q0 -32 57.5 -47.5t57.5 -43.5q0 -46 -40 -46q-32 0 -97 3.5t-97 3.5q-39 0 -68 -2l-109 -7q-47 0 -47 39
q0 62 64 62h18q11 -1 17 -1q33 0 82 45q39 35 102 111l216 259q50 60 50 87q0 29 -26 65q-18 23 -52 70q-49 72 -122 169q-45 61 -79 112q-108 163 -176 163q-98 0 -98 63q0 50 72 50q39 0 66 -3q79 -6 92 -6q31 0 94 4.5t95 4.5q72 0 72 -42q0 -32 -44.5 -52.5t-44.5 -53.5
q0 -22 25 -58q36 -50 106 -148q83 -122 100 -141q33 -36 56 -36q20 0 46 30q47 57 134 160l81 98q34 41 34 85q0 30 -89 52t-89 56q0 33 28 43q17 7 59 7q25 0 62 -4q88 -7 118 -7t91.5 5.5t91.5 5.5q85 0 85 -63z" />
    <glyph glyph-name="Y" unicode="Y" horiz-adv-x="1526" 
d="M1411 1226q0 -61 -138 -61q-56 0 -194 -174q-59 -75 -105 -128.5t-132 -164.5q-18 -25 -19 -41q-5 -119 -5 -358q0 -20 -3 -59t-3 -58q0 -62 81 -95t81 -58q0 -42 -74 -42q-31 0 -91.5 7t-90.5 7q-25 0 -73 -7.5t-73 -7.5q-123 0 -123 50q0 24 71 51q86 32 109 57
q14 14 18 39t4 114q0 48 3.5 144.5t3.5 145.5q0 37 -27 75q-106 147 -174 239q-43 63 -86 125q-56 81 -93 114q-41 36 -76 36q-98 0 -98 63q0 50 72 50q27 0 79.5 -4.5t78.5 -4.5q31 0 94 4.5t95 4.5q72 0 72 -42q0 -32 -44.5 -52.5t-44.5 -53.5q0 -22 25 -58
q36 -49 106 -148q31 -50 100 -141q25 -27 38 -27q11 0 30 21q97 110 215 258q34 42 34 85q0 30 -89 52t-89 56q0 50 87 50q30 0 90 -5.5t90 -5.5t91.5 5.5t91.5 5.5q85 0 85 -63z" />
    <glyph glyph-name="Z" unicode="Z" horiz-adv-x="1360" 
d="M1257 236q0 -123 -14 -175q-18 -67 -66 -67q-96 0 -175 2q-274 7 -351 7q-125 0 -222 -3l-300 -10q-14 0 -29.5 11.5t-15.5 24.5q0 19 28 57q20 29 75 89l106 117q50 57 266 346l249 334q31 41 90 127q31 52 31 67q0 25 -54 25l-213 1q-43 1 -118 -2q-86 -4 -118 -4
q-101 -1 -159 -59q-27 -27 -69 -110q-31 -59 -62 -59q-21 0 -21 33v16q0 95 20 174q30 116 91 116q68 0 296 -11q114 -5 204 -5q105 0 197 3l291 10q10 0 22 -11t12 -21q0 -44 -65 -106q-35 -32 -105 -98q-41 -39 -176 -222l-115 -156q-62 -84 -150 -197l-142 -182
q-104 -138 -104 -170q0 -34 46 -34q81 0 267 -4l244 -3q120 0 174 74q26 36 53 137q19 74 54 74q28 0 28 -136z" />
    <glyph glyph-name="bracketleft" unicode="[" horiz-adv-x="810" 
d="M721 -207q0 -46 -46 -46h-397q-69 0 -69 67v1608q0 67 69 67h397q46 0 46 -46q0 -47 -46 -47h-246q-79 0 -95 -18t-16 -99v-1322q0 -81 16 -99t95 -18h246q46 0 46 -47z" />
    <glyph glyph-name="backslash" unicode="\" horiz-adv-x="798" 
d="M776 -253h-114l-500 1742h114z" />
    <glyph glyph-name="bracketright" unicode="]" horiz-adv-x="810" 
d="M601 -186q0 -67 -69 -67h-397q-46 0 -46 46q0 47 46 47h246q79 0 95 18t16 99v1322q0 81 -16 99t-95 18h-246q-46 0 -46 47q0 46 46 46h397q69 0 69 -67v-1608z" />
    <glyph glyph-name="asciicircum" unicode="^" horiz-adv-x="1020" 
d="M924 993q-250 113 -414 260q-157 -143 -411 -260v94q137 101 214 197t145 252h106q69 -157 145.5 -252.5t214.5 -196.5v-94z" />
    <glyph glyph-name="underscore" unicode="_" horiz-adv-x="943" 
d="M968 -383q0 -29 -30 -29h-934q-29 0 -29 29v70q0 29 29 29h934q30 0 30 -29v-70z" />
    <glyph glyph-name="grave" unicode="`" horiz-adv-x="257" 
d="M257 1125q0 -36 -32 -36q-35 0 -60 69q-27 74 -53 148q-33 85 -71 141q-52 77 -52 107q0 42 74 42q58 0 82 -66q5 -36 17 -108q7 -37 53 -151q42 -102 42 -146z" />
    <glyph glyph-name="a" unicode="a" horiz-adv-x="956" 
d="M869 291q0 -65 -106 -175.5t-171 -110.5q-101 0 -101 110q0 23 8.5 68t8.5 68q0 27 -16 27q-8 0 -147.5 -139t-207.5 -139q-57 0 -91 45q-32 41 -32 99q0 184 175 416q187 249 395 290q43 7 127 24q72 49 80 49q29 0 29 -35q0 -18 -10 -44l-120 -307q-77 -197 -77 -287
q0 -79 66 -79q27 0 93.5 71.5t79.5 71.5q17 0 17 -23zM621 679q0 37 -64 37h-13q-117 0 -261 -173q-140 -169 -140 -289q0 -81 59 -81q105 0 264 201q155 195 155 305z" />
    <glyph glyph-name="b" unicode="b" horiz-adv-x="1061" 
d="M922 599q0 -261 -218 -436q-203 -163 -470 -163h-67q-119 0 -119 156q0 119 67 360l167 603q79 273 79 377q0 65 -52.5 109.5t-52.5 63.5q0 34 63 56q50 17 92 17q151 0 151 -118q0 -35 -20 -87q-17 -41 -34 -83q-24 -66 -108 -389q-86 -332 -86 -369q0 -31 47 -31
q38 0 167.5 98t192.5 98q201 0 201 -262zM773 567q0 151 -84 151q-32 0 -81 -22q-183 -83 -266 -180q-89 -103 -130 -293q-3 -14 -3 -24q0 -84 85 -84q65 0 160 38q134 54 222 161q97 117 97 253z" />
    <glyph glyph-name="c" unicode="c" horiz-adv-x="740" 
d="M695 755q0 -77 -82 -77q-19 0 -63 31t-71 31q-161 0 -267 -156q-95 -139 -95 -308q0 -63 36.5 -101t98.5 -38q47 0 128.5 38.5t101.5 38.5q54 0 54 -49q0 -68 -116 -120q-98 -45 -176 -45q-127 0 -191 97q-54 83 -54 216q0 184 101 332q105 155 278 204q42 12 85 12
q71 0 139 -22q93 -29 93 -84z" />
    <glyph glyph-name="d" unicode="d" horiz-adv-x="1097" 
d="M1225 1706q0 -22 -30 -67q-42 -61 -44 -66q-21 -43 -41 -126q-22 -92 -72 -279l-227 -845q-10 -37 -10 -60q0 -65 82 -65q8 0 35.5 13t42.5 13q21 0 21 -26q0 -67 -103 -132q-94 -60 -166 -60q-105 0 -105 82q0 43 27.5 123t27.5 123q0 18 -12 18q-1 0 -5 -1
q-62 -111 -149 -212q-119 -139 -197 -139q-123 0 -191 111q-59 94 -59 224q0 186 135 351q142 175 324 175q31 0 93 -2t93 -2q93 0 133 58q6 9 81.5 285t75.5 292q0 35 -64 74t-64 53q0 37 98 37q60 0 236 86q34 -1 34 -36zM770 716q0 48 -141 48q-162 0 -293.5 -143
t-131.5 -306q0 -56 22 -99q27 -55 78 -55q58 0 128 61t197 237q141 194 141 257z" />
    <glyph glyph-name="e" unicode="e" horiz-adv-x="669" 
d="M646 682q0 -102 -112 -181q-102 -72 -208 -72q-17 0 -49 6t-49 6q-99 0 -99 -154q0 -150 143 -150q82 0 173 69t85 69q61 0 61 -31q0 -11 -11 -32q-50 -95 -141 -153.5t-196 -58.5q-127 0 -191 99q-53 83 -53 217q0 208 120 369q131 176 332 176q76 0 135.5 -52
t59.5 -127zM505 638q0 42 -31.5 72t-73.5 30q-54 0 -107 -58.5t-53 -112.5q0 -24 28 -43q25 -16 51 -16q55 0 117 36q69 41 69 92z" />
    <glyph glyph-name="f" unicode="f" horiz-adv-x="753" 
d="M1001 1669q0 -22 -18 -55q-21 -36 -41 -36q-19 0 -55.5 5.5t-55.5 5.5q-90 0 -140 -81q-17 -27 -81 -251t-64 -255q0 -12 21 -22.5t34 -10.5q12 0 35.5 8t35.5 8q44 0 44 -55q0 -78 -51 -92q-55 -8 -110 -15q-70 -22 -101 -116q-2 -6 -27 -115q-12 -52 -124 -453
l-126 -451q-15 -55 -60 -107q-51 -60 -101 -60q-70 0 -130 31q-72 38 -72 102q0 65 70 65q12 0 36 -5t36 -5q51 0 80 43q23 34 153 487t130 499q0 33 -29 33q-16 0 -46 -5.5t-46 -5.5q-49 0 -49 43q0 66 105 101q117 40 132 74q3 6 26 100l53 213q59 237 117 319
q94 132 298 132q36 0 75 -19q46 -22 46 -54z" />
    <glyph glyph-name="g" unicode="g" horiz-adv-x="872" 
d="M803 718q0 -33 -53 -45q-67 -15 -86 -40q-15 -19 -24 -90q-10 -83 -17 -102q-33 -91 -149 -160q-105 -62 -211 -72q-88 -55 -88 -136q0 -46 124 -109q189 -96 229 -125q124 -88 124 -195q0 -133 -159 -199q-118 -49 -275 -49q-171 0 -319 60q-194 79 -194 224
q0 99 116 156q93 46 204 46q77 0 77 41q0 5 -1 9q-69 74 -69 127q0 55 62.5 117t67.5 107q-101 125 -101 241q0 114 82 221q88 116 198 116q93 0 303 -88q68 23 95 23q64 0 64 -78zM513 651q0 52 -29 89q-31 41 -82 41q-95 0 -158 -120q-53 -101 -53 -206q0 -52 27 -94
q30 -47 80 -47q94 0 160 126q55 106 55 211zM508 -342q0 92 -130 134q-89 29 -207 29q-120 0 -207 -25q-131 -39 -131 -125q0 -103 148 -152q103 -33 235 -33q91 0 181 42q111 50 111 130z" />
    <glyph glyph-name="h" unicode="h" horiz-adv-x="1071" 
d="M916 613q0 -201 -134 -394q-147 -212 -338 -212q-58 0 -58 78q0 100 207 167q17 5 49 19q23 14 52 47q94 108 94 245q0 181 -116 181q-57 0 -158 -67q-82 -55 -139 -113q-129 -132 -158 -311q-9 -76 -17 -152q-22 -101 -87 -101q-76 0 -76 123q0 120 75 374
q111 376 199 719q62 241 62 306q0 46 -50 85.5t-50 58.5q0 37 62 59q48 17 94 17q141 0 141 -116q0 -37 -19 -87q-18 -42 -35 -84q-26 -72 -108 -380q-86 -321 -86 -360q0 -34 39 -34q21 0 156.5 90t202.5 90q196 0 196 -248z" />
    <glyph glyph-name="i" unicode="i" horiz-adv-x="547" 
d="M475 1073q0 -48 -30.5 -77t-78.5 -29q-100 0 -100 96q0 48 31.5 79.5t79.5 31.5q98 0 98 -101zM426 818q0 -32 -36 -92q-28 -44 -55 -89q-40 -83 -81 -206q-48 -146 -48 -211q0 -48 68 -48q15 0 39 14.5t38 14.5q27 0 27 -27q0 -51 -102 -115q-96 -59 -152 -59
q-91 0 -91 122q0 77 72.5 250.5t72.5 218.5q0 20 -43 31q-59 14 -61 15q4 41 123 132.5t162 91.5q67 0 67 -43z" />
    <glyph glyph-name="j" unicode="j" horiz-adv-x="613" 
d="M552 1077q0 -49 -31.5 -79.5t-80.5 -30.5q-97 0 -97 92q0 49 32.5 82t81.5 33q95 0 95 -97zM498 817q0 -39 -36 -94q-43 -64 -50 -90l-275 -1015q-9 -35 -51 -57q-37 -20 -76 -20q-56 0 -103 24q-58 30 -58 80q0 47 55 47q9 0 28 -1.5t28 -1.5q43 0 65 33q17 26 53 172
q22 95 45 191l84 318q45 170 45 191q0 13 -14 13q-13 0 -36 -8.5t-36 -8.5q-18 0 -18 50q0 39 124 131q121 90 164 90q62 0 62 -44z" />
    <glyph glyph-name="k" unicode="k" horiz-adv-x="1024" 
d="M1339 -542q0 -77 -62 -120q-54 -38 -135 -38q-78 0 -195 74q-99 62 -151 127q-190 234 -369 745l-1 3q-32 89 -76 89q-99 0 -146 -88l-58 -162q-31 -88 -90 -88q-60 0 -60 44q0 26 22 103q57 200 164 593q33 136 104 405q32 109 65 219q40 147 40 217q0 18 -9.5 53.5
t-9.5 53.5q0 54 131 54q87 0 87 -36q0 -1 -58 -176q-19 -58 -83 -299q-49 -178 -146 -534q-47 -176 -47 -207q0 -43 119 -43q53 0 152.5 87.5t99.5 139.5q0 29 -53.5 48.5t-53.5 30.5q0 17 43 56q40 36 61 43q26 9 62 9q101 0 101 -110q0 -91 -124 -217.5t-124 -168.5
q0 -17 8 -48q59 -231 274 -587q169 -280 324 -280q38 0 79 38.5t61 38.5q54 0 54 -69z" />
    <glyph glyph-name="l" unicode="l" horiz-adv-x="570" 
d="M689 1724q0 -8 -11 -28t-34 -59q-33 -34 -83 -110q-4 -10 -26 -87l-60 -212q-58 -208 -168 -616q-90 -333 -90 -341q0 -22 37 -40q32 -15 56 -15q14 0 40 9.5t40 9.5q31 0 31 -32q0 -51 -107 -129q-103 -74 -158 -74q-121 0 -121 104q0 34 59 250l76 272l116 443
q36 115 71 231q53 171 53 215q0 32 -58 69t-58 51q0 18 34 24q55 3 162 20q14 4 89 36q63 27 84 27q26 0 26 -18z" />
    <glyph glyph-name="m" unicode="m" horiz-adv-x="1439" 
d="M1377 731q0 -103 -117.5 -298t-117.5 -258q0 -45 39 -45q18 0 68 36.5t66 36.5q34 0 34 -31q0 -47 -104 -111q-97 -61 -149 -61q-65 0 -93 19q-35 24 -35 88q0 44 122.5 258t122.5 282q0 43 -54 43q-36 0 -156 -135q-99 -111 -143 -177q-65 -109 -129 -218
q-98 -149 -177 -149q-56 0 -56 69q0 93 102 287t102 290q0 57 -40 57q-89 0 -270 -278l-224 -370q-44 -66 -103 -66q-56 0 -56 69q0 35 49 148l97 224q49 113 49 191q0 87 -53 85q-30 -34 -99 -93q-20 -4 -31 -4q-30 0 -30 20q0 51 119 138q115 83 170 83q65 0 65 -56
q0 -47 -30.5 -136.5t-30.5 -136.5t30 -45q73 76 222 225q153 149 266 149q22 0 44 -14t22 -35q0 -38 -44 -130t-44 -151q0 -16 12 -32t27 -16q47 0 89 57q12 18 37 54q58 81 153 164q118 103 187 103q46 0 71 -44q21 -36 21 -86z" />
    <glyph glyph-name="n" unicode="n" horiz-adv-x="934" 
d="M841 208q0 -64 -101 -134q-95 -66 -162 -66q-102 0 -102 94q0 92 106.5 277.5t106.5 273.5q0 53 -28 53q-98 0 -331 -381q-29 -44 -83 -136q-17 -40 -57 -119q-41 -70 -89 -70q-86 0 -86 97q0 62 50 166q73 151 77 163l26 73q35 98 35 137q0 81 -29 81q-23 0 -66 -42
t-64 -42q-29 0 -29 24q0 60 101 134q96 70 159 70q60 0 60 -52q0 -49 -29 -142t-29 -142q0 -50 25 -50q30 0 106 100q109 145 150 186q98 100 181 100q47 0 74.5 -35.5t27.5 -83.5q0 -92 -100 -297q-102 -209 -102 -256q0 -39 38 -39q31 0 77.5 39.5t61.5 39.5q25 0 25 -21z
" />
    <glyph glyph-name="o" unicode="o" horiz-adv-x="782" 
d="M728 590q0 -196 -131 -384q-144 -206 -331 -206q-121 0 -185 84q-58 76 -58 200q0 206 125 382q138 195 336 195q244 0 244 -271zM591 592q0 148 -118 148q-123 0 -228 -179q-94 -161 -94 -294q0 -130 129 -130q133 0 228 166q83 145 83 289z" />
    <glyph glyph-name="p" unicode="p" horiz-adv-x="889" 
d="M840 634q0 -68 -45 -220q-28 -96 -104 -178q-78 -86 -170 -113q-34 -10 -114.5 -10t-118.5 -39q-26 -27 -59 -113q-113 -293 -113 -422q0 -49 53 -72q1 -1 98 -28q53 -14 53 -43q0 -41 -54 -41q-35 0 -101.5 16.5t-101.5 16.5q-25 0 -75.5 -2.5t-75.5 -2.5q-95 0 -95 42
q0 11 52 30q59 22 82.5 78t103.5 342q20 72 164 601q58 213 58 218q0 18 -50.5 28t-50.5 36q0 9 53 40q57 33 69 55q13 50 27 100q16 54 79 54q78 0 78 -49q0 -14 -7.5 -41t-7.5 -41q0 -38 60 -38q24 0 69 11.5t69 11.5q80 0 131 -76q44 -67 44 -151zM705 634q0 65 -44 107
t-109 42q-74 0 -124 -82q-28 -46 -69 -201t-41 -211q0 -87 101 -87q110 0 203 165q83 146 83 267z" />
    <glyph glyph-name="q" unicode="q" horiz-adv-x="879" 
d="M846 875q0 -1 -59 -95q-24 -39 -109 -357l-175 -659q-51 -201 -51 -231q0 -38 54 -121q2 -37 -81 -37q-46 0 -123.5 -35t-97.5 -35q-52 0 -52 27q0 31 59 68q66 42 82 85q2 6 16 75q8 41 41 158q62 236 187 707q74 279 74 286q0 30 -88 30q-120 0 -256 -169
q-132 -162 -132 -285q0 -184 141 -184q6 0 17 3.5t17 3.5q21 0 21 -29q0 -23 -46 -45q-40 -19 -66 -19q-103 0 -159 82q-48 71 -48 179q0 92 57 212q176 371 521 371q18 0 51 -10t51 -10q16 0 56.5 24.5t61.5 24.5q36 0 36 -15z" />
    <glyph glyph-name="r" unicode="r" horiz-adv-x="764" 
d="M746 785q0 -49 -23 -98q-28 -60 -72 -60q-23 0 -50 42t-48 42q-63 0 -202 -234q-50 -84 -76 -163l-93 -281q-11 -33 -78 -33q-30 0 -51 28t-21 59q0 37 34 130q41 110 82 219q54 153 54 217q0 85 -35 85q-10 0 -27.5 -7.5t-27.5 -7.5q-24 0 -24 25q0 42 50 79
q47 34 90 34q82 0 82 -73q0 -27 -13 -78t-13 -78q0 -49 29 -49q20 0 74 72q72 96 114 134q79 72 159 72q86 0 86 -76z" />
    <glyph glyph-name="s" unicode="s" horiz-adv-x="664" 
d="M562 710q0 -93 -32 -93q-16 0 -79 57.5t-110 57.5q-50 0 -85 -40t-35 -91q0 -43 75 -111q138 -123 141 -126q75 -81 75 -156q0 -93 -75 -153q-69 -55 -165 -55q-79 0 -151 32q-90 41 -90 110q0 106 34 106q1 0 6 -1q111 -102 191 -102q94 0 94 83q0 34 -55 89
q-86 85 -104 108q-55 73 -55 152q0 110 61 192q67 92 173 92q39 0 96 -23q63 -26 79 -56q11 -21 11 -72z" />
    <glyph glyph-name="t" unicode="t" horiz-adv-x="665" 
d="M621 833q0 -82 -117 -82q-18 0 -53.5 3t-53.5 3q-55 0 -79 -46q-7 -14 -28 -93l-105 -397q-2 -8 -2 -18q0 -59 55 -59q48 0 97.5 76.5t79.5 76.5q47 0 47 -42q0 -48 -61 -137q-81 -118 -226 -118q-53 0 -96 33q-48 35 -48 86q0 88 127 506q25 82 25 99q0 23 -43 26
q31 -2 -59 -2q-41 0 -41 31q0 57 48 72q24 8 96 8q54 0 81 80q31 93 45 102q20 13 67 13q45 0 45 -28q0 -22 -18 -62t-18 -62q0 -49 56 -49q26 0 78 4t78 4q23 0 23 -28z" />
    <glyph glyph-name="u" unicode="u" horiz-adv-x="911" 
d="M840 763q0 -60 -50 -166l-78 -162q-22 -54 -39 -105q-28 -83 -28 -126q0 -59 27 -59q24 0 66.5 41.5t64.5 41.5q30 0 30 -24q0 -60 -102 -132q-96 -68 -160 -68q-54 0 -54 54q0 50 32 145t32 145q0 39 -21 39q-31 0 -109 -100q-112 -144 -156 -187q-102 -100 -190 -100
q-43 0 -69 40q-22 34 -22 80q0 107 98.5 292t98.5 261q0 47 -37 47q-31 0 -78 -39.5t-61 -39.5q-23 0 -23 20q0 64 99 134q94 66 161 66q41 0 67.5 -31t26.5 -72q0 -97 -102 -275.5t-102 -271.5q0 -57 27 -57q80 0 235 219q110 154 185 300q18 40 59 118q41 70 92 70
q37 0 60 -31q20 -29 20 -67z" />
    <glyph glyph-name="v" unicode="v" horiz-adv-x="1067" 
d="M1017 615q0 -181 -145 -380q-171 -235 -370 -235q-106 0 -170 99q-54 85 -54 198q0 79 46 191l84 182q-1 63 -125 63q-223 0 -223 -131q0 -9 4 -25.5t4 -24.5q0 -40 -37 -40q-46 0 -46 81q0 33 12 80q7 27 26 78q58 111 304 111q93 0 125 -8q71 -19 72 -85
q-123 -297 -123 -409q0 -80 49 -144q52 -69 130 -69q103 0 230 161q121 154 121 261q0 45 -38 121t-38 110q0 23 16.5 42t38.5 19q55 0 85 -99q22 -72 22 -147z" />
    <glyph glyph-name="w" unicode="w" horiz-adv-x="1165" 
d="M1106 599q0 -227 -231 -452q-48 -47 -128 -92q-91 -52 -145 -52q-22 0 -38.5 19t-16.5 41q0 40 29 114.5t29 114.5q0 29 -15 29q-17 0 -188.5 -160.5t-233.5 -160.5q-35 0 -35 33q0 55 36 221t36 253q0 226 -86 226q-67 0 -67 -53q0 -6 3.5 -16t3.5 -16q0 -16 -23 -16
q-56 0 -56 106q0 54 37 104q40 55 92 55q206 0 206 -321q0 -44 -10.5 -130.5t-10.5 -128.5q0 -19 17.5 -33t37.5 -14q34 0 113 49q72 45 102 78q74 80 74 208q0 163 -112 163q-40 0 -82 -36q-62 -54 -71 -59q-21 -1 -21 19q0 54 78 113q74 56 131 56q81 0 131 -70
q45 -62 45 -146q0 -48 -13 -143t-13 -143q0 -132 71 -132q83 0 164 122q74 113 74 201q0 45 -37 71q-33 23 -80 23q-20 0 -64 -19.5t-52 -19.5q-28 0 -28 24q0 32 94 68q83 33 124 33q129 0 129 -131z" />
    <glyph glyph-name="x" unicode="x" horiz-adv-x="1026" 
d="M965 793q0 -46 -32 -46q-15 0 -39.5 11.5t-36.5 11.5q-48 0 -233 -237q-40 -51 -40 -91q0 -55 68 -187q72 -141 118 -141q13 0 39 7.5t39 7.5q35 0 35 -40q0 -50 -57 -90q-52 -37 -104 -37q-71 0 -205 283q-30 63 -51 63q-17 0 -158 -154t-213 -154q-85 0 -85 93
q0 89 71 86q40 -34 59 -34q62 0 240 224q35 44 35 76q0 42 -66 153q-69 117 -105 117q-42 0 -103 -95q-40 2 -40 82q0 60 45 109.5t104 49.5q71 0 136 -73q38 -43 91 -136q41 -73 53 -73t146.5 150t203.5 150q85 0 85 -86z" />
    <glyph glyph-name="y" unicode="y" horiz-adv-x="799" 
d="M698 724q0 -278 -165 -572q-156 -277 -390 -456q-229 -175 -530 -175q-69 0 -138 36q-83 42 -83 104q0 34 48 34h6q85 -62 102 -71q64 -38 116 -38q294 0 530 385q88 144 88 305q0 77 -20 192q-23 134 -54 178q-1 1 -62 64q-31 31 -31 85q0 66 87 66q59 0 97 -67
q20 -36 57 -290q34 -225 78 -243q66 9 113 190q36 143 36 244q0 19 -5 57.5t-5 57.5q0 51 52 51q73 0 73 -137z" />
    <glyph glyph-name="z" unicode="z" horiz-adv-x="1225" 
d="M1304 -428q0 -75 -98 -148q-93 -69 -171 -69q-127 0 -215 78q-68 61 -124 184q-43 107 -86 215q-41 101 -144 184q-110 88 -212 88q-48 0 -120 -56t-102 -56q-48 0 -48 29q0 44 162 160q107 78 210 138q85 50 230 149q188 129 188 155q0 68 -128 99q-85 20 -189 20
q-132 0 -177 -49q-12 -13 -36 -91q-15 -49 -76 -49q-46 0 -46 40q0 38 40 104q47 76 134 121q84 43 177 43q77 0 224.5 -42.5t224.5 -42.5q71 0 186.5 58.5t124.5 58.5q28 0 28 -25q0 -43 -98 -116l-396 -286q-324 -241 -324 -284q0 -5 96 -71q189 -130 255 -315
q57 -160 88 -208q69 -107 184 -107q59 0 126 63t72 63q40 0 40 -35z" />
    <glyph glyph-name="braceleft" unicode="{" horiz-adv-x="870" 
d="M670 -223q0 -30 -32 -30q-322 0 -322 323q0 -4 2 18l31 341q8 83 -43 123q-43 34 -139 34q-27 0 -27 33q0 31 27 31q79 0 129 33q60 39 54 112l-1 13l-33 416q-1 13 -1 19q0 119 106 187q91 59 217 59q30 0 30 -30q0 -29 -30 -29q-86 0 -132.5 -57.5t-46.5 -152.5
q0 -17 3 -43l40 -342q2 -17 2 -26q0 -144 -159 -190q159 -40 159 -201q0 5 -2 -15l-42 -412q-1 -10 -1 -17q0 -69 54.5 -118.5t124.5 -49.5q32 0 32 -29z" />
    <glyph glyph-name="bar" unicode="|" horiz-adv-x="527" 
d="M318 -253h-109v1742h109v-1742z" />
    <glyph glyph-name="braceright" unicode="}" horiz-adv-x="870" 
d="M730 617q0 -31 -27 -31q-79 0 -129 -33q-60 -39 -54 -112l1 -13l33 -416q1 -13 1 -19q0 -119 -106 -187q-91 -59 -217 -59q-30 0 -30 30q0 29 30 29q86 0 132.5 57.5t46.5 152.5q0 17 -3 43l-40 342q-2 17 -2 26q0 144 159 190q-159 40 -159 201q0 -5 2 15l42 412
q1 10 1 17q0 69 -54.5 118.5t-124.5 49.5q-32 0 -32 29q0 30 32 30q322 0 322 -323q0 4 -2 -18l-31 -341q-8 -83 43 -123q43 -34 139 -34q27 0 27 -33z" />
    <glyph glyph-name="asciitilde" unicode="~" horiz-adv-x="1319" 
d="M1204 659q0 -75 -90 -140q-83 -61 -161 -61q-52 0 -107 65q-83 97 -112 119q-85 66 -207 66q-115 0 -157 -65q-10 -14 -38 -119q-18 -66 -75 -66q-67 0 -67 66q0 144 131 227q113 72 266 72q107 0 187 -68q25 -21 109 -127q54 -67 100 -67q37 0 86.5 83.5t73.5 83.5
q61 0 61 -69z" />
    <glyph glyph-name="delete_Cc" horiz-adv-x="1685" 
d="M1414 -267h-1205v1698h1205v-1698zM1332 -185v1534h-1041v-1534h1041zM1132 933h-641v97h554v249h87v-346zM1132 474h-641v346h87v-251h164v233h87v-233h216v251h87v-346zM1132 -55h-641v174q0 66 12 108q28 92 120 141q80 43 189 43q110 0 194 -48q97 -56 118 -157
q8 -39 8 -92v-169zM1049 42v56q0 51 -6 77q-35 135 -232 135q-201 0 -233 -141q-5 -24 -5 -71v-56h476z" />
    <glyph glyph-name="nonbreakingspace" unicode="&#xa0;" horiz-adv-x="500" 
 />
    <glyph glyph-name="exclamdown" unicode="&#xa1;" horiz-adv-x="512" 
d="M542 784q0 -54 -33 -92q-34 -41 -87 -41q-49 0 -79 34.5t-30 84.5q0 54 33.5 93.5t87.5 39.5q48 0 78 -35t30 -84zM408 536q0 -12 -13 -78q-46 -228 -139 -683q-36 -179 -75 -237q-26 -39 -65 -39q-89 0 -89 104q0 52 32 144l273 784q8 23 38 23q38 0 38 -18z" />
    <glyph glyph-name="cent" unicode="&#xa2;" horiz-adv-x="814" 
d="M832 895q0 -77 -82 -77q-19 0 -56 26q-42 29 -63 34l-169 -586q20 7 89 39q48 23 68 23q54 0 54 -49q0 -60 -91 -109q-75 -40 -163 -53l-46 -157q-8 -29 -37 -29q-41 0 -41 39q0 6 2 12l39 135q-200 32 -200 310q0 184 101 332q105 155 278 204q36 10 69 12l38 131
q8 29 37 29q41 0 41 -39q0 -6 -2 -12l-33 -114q167 -24 167 -101zM546 872q-132 -33 -216 -177q-76 -131 -76 -279q0 -128 120 -138z" />
    <glyph glyph-name="sterling" unicode="&#xa3;" horiz-adv-x="932" 
d="M934 1135q0 -94 -78 -94q-60 0 -82 51q-11 47 -23 96.5t-54 49.5q-78 0 -124 -99q-61 -131 -94 -375h278q40 0 40 -40t-40 -40h-290q-10 -55 -33 -149q-40 -164 -101 -303l35 -8q38 -9 165 -61q102 -43 167 -43q85 0 85 71q0 48 -55 72q-79 35 -89 44q-24 24 -24 48
q0 88 100 88q72 0 114 -76q35 -63 35 -142q0 -91 -68 -169q-71 -81 -161 -81q-105 0 -189 54q-79 57 -159 114q-90 -168 -185 -168q-31 0 -52 25t-21 57q0 75 81 127q66 42 150 50q29 93 43 223q10 113 19 227h-204q-40 0 -40 40t40 40h210q20 236 77 358q88 188 280 188
q86 0 160 -44q87 -51 87 -131z" />
    <glyph glyph-name="currency" unicode="&#xa4;" horiz-adv-x="1384" 
d="M1177 51l-98 -97l-135 135q-114 -82 -252 -82q-141 0 -255 84l-136 -137l-94 94l136 136q-83 113 -83 255q0 138 82 252l-135 135l98 97l134 -134q113 82 253 82q142 0 255 -83l136 135l93 -93l-136 -136q84 -114 84 -255q0 -140 -82 -253zM999 439q0 127 -90 217
t-217 90t-217 -90t-90 -217t90 -217t217 -90t217 90t90 217z" />
    <glyph glyph-name="yen" unicode="&#xa5;" horiz-adv-x="1526" 
d="M1411 1226q0 -61 -138 -61q-56 0 -194 -174q-59 -75 -105 -128.5t-132 -164.5q-18 -25 -19 -41q-1 -37 -2 -78h256q40 0 40 -40t-40 -40h-258q-1 -59 -1 -130h259q40 0 40 -40t-40 -40h-259q0 -16 -3 -54q-3 -34 -3 -53q0 -62 81 -95t81 -58q0 -42 -74 -42q-31 0 -91.5 7
t-90.5 7q-25 0 -73 -7.5t-73 -7.5q-123 0 -123 50q0 24 71 51q87 32 109 57q14 14 18.5 40.5t3.5 104.5h-251q-40 0 -40 40t40 40h252q2 43 5 130h-257q-40 0 -40 40t40 40h258v8q0 37 -27 75q-106 147 -174 239q-43 63 -86 125q-56 81 -93 114q-41 36 -76 36q-98 0 -98 63
q0 50 72 50q27 0 79.5 -4.5t78.5 -4.5q31 0 94 4.5t95 4.5q72 0 72 -42q0 -32 -44.5 -52.5t-44.5 -53.5q0 -22 25 -58q36 -49 106 -148q31 -50 100 -141q25 -27 38 -27q11 0 30 21q97 110 215 258q34 42 34 85q0 30 -89 52t-89 56q0 50 87 50q30 0 90 -5.5t90 -5.5t91.5 5.5
t91.5 5.5q85 0 85 -63z" />
    <glyph glyph-name="brokenbar" unicode="&#xa6;" horiz-adv-x="527" 
d="M318 747h-109v742h109v-742zM318 -253h-109v742h109v-742z" />
    <glyph glyph-name="section" unicode="&#xa7;" horiz-adv-x="913" 
d="M813 1344q0 -38 -25 -65.5t-63 -27.5q-48 0 -118.5 67.5t-108.5 67.5q-102 0 -102 -107q0 -134 150 -390q184 -312 211 -393q41 -121 41 -270q0 -185 -109 -318q-114 -138 -295 -155q-63 -6 -78 -6q-71 0 -140 45q-76 49 -76 117q0 39 26 68.5t64 29.5q67 0 124 -78.5
t106 -78.5q113 0 113 150q0 106 -214 445q-69 110 -99 165q-51 95 -72 178q-25 95 -25 222q0 186 109 319q114 140 296 155q59 5 74 5q68 0 134 -38q77 -44 77 -107zM701 180q0 158 -102 358q-94 164 -188 327q-102 181 -102 292q0 117 50 201q-139 -131 -139 -302
q0 -158 104 -360l192 -328q104 -181 104 -289q0 -105 -43 -185q124 133 124 286z" />
    <glyph glyph-name="dieresis" unicode="&#xa8;" horiz-adv-x="851" 
d="M851 1272q0 -39 -28 -67t-67 -28t-67 28t-28 67t28 67t67 28t67 -28t28 -67zM451 1272q0 -39 -28 -67t-67 -28t-67 28t-28 67t28 67t67 28t67 -28t28 -67z" />
    <glyph glyph-name="copyright" unicode="&#xa9;" horiz-adv-x="1172" 
d="M1127 490q0 -218 -150.5 -368t-368.5 -150t-368 150t-150 368t150 368.5t368 150.5q219 0 369 -150t150 -369zM1072 490q0 196 -134 330t-330 134t-329.5 -134t-133.5 -330q0 -195 134 -329t329 -134q196 0 330 133.5t134 329.5zM893 699q0 -44 -20 -92q-7 -17 -29 -17
h-5q-27 0 -27 21q0 5 1.5 13.5t1.5 13.5q0 33 -33 64q-45 42 -120 42q-114 0 -192.5 -91.5t-78.5 -207.5q0 -97 59 -158t155 -61q68 0 122 66q11 13 31 43q8 12 21 12q35 0 35 -30q0 -25 -32 -96q-8 -17 -22 -25q-67 -35 -173 -35q-135 0 -220.5 91t-85.5 227
q0 135 107.5 232.5t266.5 97.5q145 0 230 -92q8 -8 8 -18z" />
    <glyph glyph-name="ordfeminine" unicode="&#xaa;" horiz-adv-x="691" 
d="M691 743q0 -47 -78.5 -130.5t-125.5 -83.5q-74 0 -74 82q0 19 8.5 54t9.5 52l-110 -114q-81 -78 -124 -78q-36 0 -61 29.5t-25 65.5q0 140 136 320t274 208q27 5 79 16q51 36 59 36q31 0 31 -35q0 -17 -10 -40q-154 -361 -154 -420q0 -32 24 -32q12 0 57 50t60 50
q24 0 24 -30zM525 1020q0 7 -24 7h-9q-71 0 -170 -123q-95 -120 -95 -194q0 -35 20 -35q63 0 172 141q106 137 106 204z" />
    <glyph glyph-name="guillemotleft" unicode="&#xab;" horiz-adv-x="899" 
d="M782 116l-44 -32l-257 325q-16 20 -16 37q0 12 17 34l256 323l43 -33l-158 -323zM468 116l-43 -32l-258 325q-16 20 -16 37q0 12 17 34l257 323l42 -33l-158 -323z" />
    <glyph glyph-name="logicalnot" unicode="&#xac;" horiz-adv-x="1106" 
d="M916 26q0 -26 -26 -26h-74q-26 0 -26 26v369h-664q-26 0 -26 26v74q0 26 26 26h764q26 0 26 -26v-469z" />
    <glyph glyph-name="sfthyphen" unicode="&#xad;" horiz-adv-x="0" 
 />
    <glyph glyph-name="registered" unicode="&#xae;" horiz-adv-x="1167" 
d="M1142 887q0 -218 -150.5 -368t-368.5 -150t-368 150t-150 368t150 368.5t368 150.5q219 0 369 -150t150 -369zM1087 887q0 196 -134 330t-330 134t-329.5 -134t-133.5 -330q0 -195 134 -329t329 -134q196 0 330 133.5t134 329.5zM903 613q0 -38 -28 -38q-8 0 -24.5 1
t-24.5 1q-7 0 -21.5 -1t-21.5 -1q-39 0 -58 45l-86 204q-20 47 -76 47l-52 -202q-2 -8 -2 -17q0 -18 44 -18q20 0 20 -20q0 -39 -28 -39q1 0 -33.5 2.5t-68.5 2.5q-18 0 -53 -2.5t-52 -2.5q-22 0 -22 22q0 36 33 37q-8 0 11 0q41 0 59 70l102 397q5 19 5 29q0 15 -25 14
q-27 0 -20 0h-5q-24 1 -24 21t12 33q7 6 95 13q76 6 106 6q78 0 137 -32q75 -41 75 -119q0 -70 -63 -124q-52 -45 -103 -52q27 -30 66 -131q37 -96 59 -112q10 -7 51 -15q16 -3 16 -19zM766 1057q0 95 -118 95q-13 0 -16 -13l-52 -202q186 3 186 120z" />
    <glyph glyph-name="overscore" unicode="&#xaf;" horiz-adv-x="943" 
d="M968 1427q0 -29 -30 -29h-934q-29 0 -29 29v70q0 29 29 29h934q30 0 30 -29v-70z" />
    <glyph glyph-name="degree" unicode="&#xb0;" horiz-adv-x="982" 
d="M955 1055q0 -142 -98 -239.5t-240 -97.5t-239.5 97.5t-97.5 239.5t97.5 240t239.5 98q143 0 240.5 -97.5t97.5 -240.5zM839 1055q0 94 -64 157.5t-158 63.5t-157.5 -63.5t-63.5 -157.5q0 -93 64 -156.5t157 -63.5q94 0 158 63t64 157z" />
    <glyph glyph-name="plusminus" unicode="&#xb1;" horiz-adv-x="1106" 
d="M1016 421q0 -26 -26 -26h-369v-369q0 -26 -26 -26h-74q-26 0 -26 26v369h-369q-26 0 -26 26v74q0 26 26 26h369v369q0 26 26 26h74q26 0 26 -26v-369h369q26 0 26 -26v-74zM1016 -229q0 -26 -26 -26h-864q-26 0 -26 26v74q0 26 26 26h864q26 0 26 -26v-74z" />
    <glyph glyph-name="twosuperior" unicode="&#xb2;" horiz-adv-x="668" 
d="M699 1187q0 -221 -372 -519h305q30 0 30 -25q0 -11 -24.5 -51t-33 -45t-23.5 -5h-412q-29 0 -29 26q0 37 26 61q51 43 151 132q243 227 243 396q0 113 -129 113q-52 0 -118.5 -47t-67.5 -47q-11 0 -28 13.5t-17 23.5t7 19q130 169 287 169q88 0 146.5 -62.5t58.5 -151.5z
" />
    <glyph glyph-name="threesuperior" unicode="&#xb3;" horiz-adv-x="668" 
d="M692 1241q0 -91 -139 -187q110 -50 110 -172q0 -131 -142 -244t-309 -113q-131 0 -131 89q0 69 75 69q38 0 78.5 -32t65.5 -32q91 0 159 75q66 72 66 164q0 48 -29.5 79t-76.5 31q-9 0 -26.5 -3t-26.5 -3q-13 0 -26 13.5t-13 26.5t19 23q123 63 132 69q79 52 79 115
q0 36 -34 58q-30 20 -68 20q-51 0 -102 -32.5l-51 -32.5q-10 0 -25 13t-15 23q0 7 5 15q35 54 100 91t128 37q75 0 133 -42q64 -46 64 -118z" />
    <glyph glyph-name="acute" unicode="&#xb4;" horiz-adv-x="512" 
d="M677 1557q0 -33 -63 -130q-45 -69 -85 -173l-66 -182q-31 -83 -67 -83q-30 0 -30 35q0 50 52 180q60 149 69 190q5 45 26 133q30 79 89 79q75 0 75 -49z" />
    <glyph glyph-name="mu1" unicode="&#xb5;" horiz-adv-x="1260" 
d="M1394 165q0 -17 -21 -40q-143 -157 -312 -157q-115 0 -176 85q-9 13 -89 184q-163 -237 -362 -237q-85 0 -139 40q-20 15 -102 105q-42 -7 -52 -304q-11 -328 -26 -362q-24 -54 -68 -54q-66 0 -66 82q0 95 45 328l123 632q16 101 52 302q10 50 38.5 71t81.5 21
q69 0 69 -124q0 -40 -64.5 -175t-64.5 -228q0 -176 173 -176q136 0 254 105q125 111 125 249q0 332 167 332q81 0 81 -65q0 -67 -38 -153q-35 -71 -69 -143q-38 -90 -38 -196q0 -92 66 -141q60 -44 155 -44q65 0 98 9q27 7 80 45q49 35 55 35q24 0 24 -26z" />
    <glyph glyph-name="paragraph" unicode="&#xb6;" horiz-adv-x="1135" 
d="M1215 1257l-43 -62q-83 -35 -268 -35v-571q0 -344 -50 -486q-46 -132 -139 -211q-102 -87 -234 -87q-122 0 -208 71q-91 75 -91 194q0 86 57 148.5t142 62.5q59 0 105.5 -41t46.5 -99q0 -51 -29 -85q-30 -37 -79 -37t-49 -39q0 -46 48 -74q41 -24 91 -24q184 0 257 241
q27 90 31 349q-166 -21 -233 -21q-183 0 -300 106q-120 109 -120 291q0 248 189 354q98 55 395 55h70v177l100 22v-199h311zM804 523v637h-172q-25 -179 -25 -300q0 -54 19 -281q97 -45 178 -56z" />
    <glyph glyph-name="middot" unicode="&#xb7;" horiz-adv-x="512" 
d="M524 651q0 -56 -35 -97t-91 -41q-96 0 -96 101q0 58 35.5 100t93.5 42q93 0 93 -105z" />
    <glyph glyph-name="cedilla" unicode="&#xb8;" horiz-adv-x="370" 
d="M305 -196q0 -59 -51.5 -98.5t-112.5 -39.5q-34 0 -73 20q-46 24 -46 54q0 24 26 24q15 0 50 -16t56 -16q60 0 60 55q0 63 -68 63q-17 0 -32 -3q-22 18 -31 35l129 140l46 -15l-61 -83q108 -23 108 -120z" />
    <glyph glyph-name="onesuperior" unicode="&#xb9;" horiz-adv-x="668" 
d="M658 1361q0 -5 -1 -8l-189 -677q-5 -18 -5 -29q0 -30 42 -36q4 -1 65 -1q30 0 30 -25q0 -51 -38 -51q-28 0 -85 4t-85 4q-29 0 -87 -4t-87 -4q-28 0 -28 26q0 2 1 7q5 32 26 40q7 3 47 3q56 2 73 64l153 546q-116 -57 -144 -57t-28 34q0 32 22 44q5 2 14 6q80 34 212 125
q19 13 52 13q40 0 40 -24z" />
    <glyph glyph-name="ordmasculine" unicode="&#xba;" horiz-adv-x="633" 
d="M633 969q0 -141 -90 -284q-101 -160 -234 -160q-82 0 -124 61q-38 53 -38 138q0 146 88 281q98 151 237 151q161 0 161 -187zM518 963q0 80 -57 80q-74 0 -143 -127q-61 -114 -61 -196q0 -71 65 -71q81 0 143 120q53 103 53 194z" />
    <glyph glyph-name="guillemotright" unicode="&#xbb;" horiz-adv-x="897" 
d="M809 446q0 -17 -16 -37l-257 -325l-44 32l159 331l-158 323l43 33l256 -323q17 -22 17 -34zM495 446q0 -17 -15 -37l-258 -325l-43 32l158 331l-157 323l42 33l256 -323q17 -22 17 -34z" />
    <glyph glyph-name="onequarter" unicode="&#xbc;" horiz-adv-x="1396" 
d="M1382 -73q0 -26 -12 -49q-14 -29 -37 -29h-118l-61 -218q-8 -30 -56 -30q-67 0 -67 29q0 20 58 219h-251q-42 0 -42 68q0 23 11 34l492 494q15 15 48 15q31 0 31 -24q0 -4 -67 -243l-67 -239h108q30 0 30 -27zM1199 241l-275 -287h195zM658 1361q0 -5 -1 -8l-189 -677
q-5 -18 -5 -29q0 -30 42 -36q4 -1 65 -1q30 0 30 -25q0 -51 -38 -51q-28 0 -85 4t-85 4q-29 0 -87 -4t-87 -4q-28 0 -28 26q0 2 1 7q5 32 26 40q7 3 47 3q56 2 73 64l153 546q-116 -57 -144 -57t-28 34q0 32 22 44q5 2 14 6q80 34 212 125q19 13 52 13q40 0 40 -24z
M1385 1272q0 -6 -5 -13l-1244 -1630q-17 -22 -40 -22h-67q-18 0 -18 14q0 7 5 14l1244 1630q16 21 38 21h71q16 0 16 -14z" />
    <glyph glyph-name="onehalf" unicode="&#xbd;" horiz-adv-x="1396" 
d="M1357 247q0 -221 -372 -519h305q30 0 30 -25q0 -11 -24.5 -51t-33 -45t-23.5 -5h-412q-29 0 -29 26q0 37 26 61q51 43 151 132q243 227 243 396q0 113 -129 113q-52 0 -118.5 -47t-67.5 -47q-11 0 -28 13.5t-17 23.5t7 19q130 169 287 169q88 0 146.5 -62.5t58.5 -151.5z
M658 1361q0 -5 -1 -8l-189 -677q-5 -18 -5 -29q0 -30 42 -36q4 -1 65 -1q30 0 30 -25q0 -51 -38 -51q-28 0 -85 4t-85 4q-29 0 -87 -4t-87 -4q-28 0 -28 26q0 2 1 7q5 32 26 40q7 3 47 3q56 2 73 64l153 546q-116 -57 -144 -57t-28 34q0 32 22 44q5 2 14 6q80 34 212 125
q19 13 52 13q40 0 40 -24zM1385 1272q0 -6 -5 -13l-1244 -1630q-17 -22 -40 -22h-67q-18 0 -18 14q0 7 5 14l1244 1630q16 21 38 21h71q16 0 16 -14z" />
    <glyph glyph-name="threequarters" unicode="&#xbe;" horiz-adv-x="1396" 
d="M1382 -73q0 -26 -12 -49q-14 -29 -37 -29h-118l-61 -218q-8 -30 -56 -30q-67 0 -67 29q0 20 58 219h-251q-42 0 -42 68q0 23 11 34l492 494q15 15 48 15q31 0 31 -24q0 -4 -67 -243l-67 -239h108q30 0 30 -27zM1199 241l-275 -287h195zM692 1241q0 -91 -139 -187
q110 -50 110 -172q0 -131 -142 -244t-309 -113q-131 0 -131 89q0 69 75 69q38 0 78.5 -32t65.5 -32q91 0 159 75q66 72 66 164q0 48 -29.5 79t-76.5 31q-9 0 -26.5 -3t-26.5 -3q-13 0 -26 13.5t-13 26.5t19 23q123 63 132 69q79 52 79 115q0 36 -34 58q-30 20 -68 20
q-51 0 -102 -32.5l-51 -32.5q-10 0 -25 13t-15 23q0 7 5 15q35 54 100 91t128 37q75 0 133 -42q64 -46 64 -118zM1385 1272q0 -6 -5 -13l-1244 -1630q-17 -22 -40 -22h-67q-18 0 -18 14q0 7 5 14l1244 1630q16 21 38 21h71q16 0 16 -14z" />
    <glyph glyph-name="questiondown" unicode="&#xbf;" horiz-adv-x="642" 
d="M621 782q0 -53 -33 -92t-85 -39q-50 0 -80.5 36t-30.5 86q0 53 33 91.5t85 38.5q49 0 80 -35.5t31 -85.5zM595 225q0 -28 -6 -53q-31 -130 -143 -183q-100 -31 -200 -61q-108 -36 -131 -123q-5 -19 -5 -34q0 -52 40 -84q37 -29 91 -29h24q16 1 24 1q131 0 131 -77
q0 -83 -93 -83q-145 0 -235.5 94t-90.5 239q0 174 123 240q7 3 230 65q123 34 123 133q0 119 -120 119q-103 0 -103 66q0 36 24.5 66.5t59.5 30.5q96 0 180 -117q77 -109 77 -210z" />
    <glyph glyph-name="Agrave" unicode="&#xc0;" horiz-adv-x="1420" 
d="M1368 43q0 -56 -27 -56q-29 0 -79 7q-116 14 -149 14q-27 0 -114 -13q-46 -8 -77 -8q-68 0 -68 64q0 22 39 41q53 26 72 47q38 42 38 119q0 74 -31 144q-40 88 -105 88q-21 0 -63.5 2.5t-64.5 2.5q-23 0 -66 -2q-46 -3 -67 -3q-90 -1 -159 -167q-52 -123 -52 -166
q0 -39 78 -61.5t78 -52.5q0 -53 -66 -53q-34 0 -79 5q-104 9 -141 9q-57 0 -147 -14h-24q-70 0 -70 45q0 50 70 64q95 20 113 34q84 68 138 203l146 361q84 211 147 376q51 137 81 189q42 73 81 73q47 0 70 -78q12 -49 38 -145q32 -97 88 -275q45 -153 80 -285
q19 -77 58 -232q34 -126 83 -167q15 -13 95 -47q56 -25 56 -63zM887 670q0 25 -43 171q-54 181 -100 181q-33 0 -103 -203q-47 -139 -47 -174q0 -49 56 -58q3 -1 96 -1h38q65 0 81 12q22 15 22 72zM817 1425q0 -36 -32 -36q-35 0 -60 69q-27 74 -53 148q-33 85 -71 141
q-52 77 -52 107q0 42 74 42q58 0 82 -66q5 -36 17 -108q7 -37 53 -151q42 -102 42 -146z" />
    <glyph glyph-name="Aacute" unicode="&#xc1;" horiz-adv-x="1420" 
d="M1368 43q0 -56 -27 -56q-29 0 -79 7q-116 14 -149 14q-27 0 -114 -13q-46 -8 -77 -8q-68 0 -68 64q0 22 39 41q53 26 72 47q38 42 38 119q0 74 -31 144q-40 88 -105 88q-21 0 -63.5 2.5t-64.5 2.5q-23 0 -66 -2q-46 -3 -67 -3q-90 -1 -159 -167q-52 -123 -52 -166
q0 -39 78 -61.5t78 -52.5q0 -53 -66 -53q-34 0 -79 5q-104 9 -141 9q-57 0 -147 -14h-24q-70 0 -70 45q0 50 70 64q95 20 113 34q84 68 138 203l146 361q84 211 147 376q51 137 81 189q42 73 81 73q47 0 70 -78q12 -49 38 -145q32 -97 88 -275q45 -153 80 -285
q19 -77 58 -232q34 -126 83 -167q15 -13 95 -47q56 -25 56 -63zM887 670q0 25 -43 171q-54 181 -100 181q-33 0 -103 -203q-47 -139 -47 -174q0 -49 56 -58q3 -1 96 -1h38q65 0 81 12q22 15 22 72zM1047 1854q0 -30 -52 -107q-39 -58 -124 -289q-25 -69 -60 -69
q-32 0 -32 36q0 44 42 146q46 114 53 151q2 37 17 108q24 66 82 66q74 0 74 -42z" />
    <glyph glyph-name="Acircumflex" unicode="&#xc2;" horiz-adv-x="1420" 
d="M1057 1405q0 -36 -32 -36q-35 0 -60 69q-94 257 -112 257q-29 0 -213 -272q-37 -54 -65 -54q-34 0 -34 30q0 38 70 137q87 122 96 142q94 198 156 198q66 0 99 -174q7 -37 54 -152q41 -100 41 -145zM1368 43q0 -56 -27 -56q-29 0 -79 7q-116 14 -149 14q-27 0 -114 -13
q-46 -8 -77 -8q-68 0 -68 64q0 22 39 41q53 26 72 47q38 42 38 119q0 74 -31 144q-40 88 -105 88q-21 0 -63.5 2.5t-64.5 2.5q-23 0 -66 -2q-46 -3 -67 -3q-90 -1 -159 -167q-52 -123 -52 -166q0 -39 78 -61.5t78 -52.5q0 -53 -66 -53q-34 0 -79 5q-104 9 -141 9
q-57 0 -147 -14h-24q-70 0 -70 45q0 50 70 64q95 20 113 34q84 68 138 203l146 361q84 211 147 376q51 137 81 189q42 73 81 73q47 0 70 -78q12 -49 38 -145q32 -97 88 -275q45 -153 80 -285q19 -77 58 -232q34 -126 83 -167q15 -13 95 -47q56 -25 56 -63zM887 670
q0 25 -43 171q-54 181 -100 181q-33 0 -103 -203q-47 -139 -47 -174q0 -49 56 -58q3 -1 96 -1h38q65 0 81 12q22 15 22 72z" />
    <glyph glyph-name="Atilde" unicode="&#xc3;" horiz-adv-x="1420" 
d="M1139 1678q0 -74 -44 -125q-45 -54 -118 -54q-77 0 -124 52q-33 48 -67 96q-41 52 -106 52q-55 0 -83 -52q-17 -48 -35 -96q-19 -52 -56 -52q-41 0 -41 49q0 110 66 180.5t176 70.5q71 0 122 -54q12 -13 70 -102q36 -54 70 -54q38 0 64 73.5t65 73.5q41 0 41 -58z
M1368 43q0 -56 -27 -56q-29 0 -79 7q-116 14 -149 14q-27 0 -114 -13q-46 -8 -77 -8q-68 0 -68 64q0 22 39 41q53 26 72 47q38 42 38 119q0 74 -31 144q-40 88 -105 88q-21 0 -63.5 2.5t-64.5 2.5q-23 0 -66 -2q-46 -3 -67 -3q-90 -1 -159 -167q-52 -123 -52 -166
q0 -39 78 -61.5t78 -52.5q0 -53 -66 -53q-34 0 -79 5q-104 9 -141 9q-57 0 -147 -14h-24q-70 0 -70 45q0 50 70 64q95 20 113 34q84 68 138 203l146 361q84 211 147 376q51 137 81 189q42 73 81 73q47 0 70 -78q12 -49 38 -145q32 -97 88 -275q45 -153 80 -285
q19 -77 58 -232q34 -126 83 -167q15 -13 95 -47q56 -25 56 -63zM887 670q0 25 -43 171q-54 181 -100 181q-33 0 -103 -203q-47 -139 -47 -174q0 -49 56 -58q3 -1 96 -1h38q65 0 81 12q22 15 22 72z" />
    <glyph glyph-name="Adieresis" unicode="&#xc4;" horiz-adv-x="1420" 
d="M1088 1616q0 -46 -29.5 -78t-75.5 -32q-86 0 -86 88q0 46 30 79t75 33q86 0 86 -90zM688 1626q0 -46 -29.5 -78t-75.5 -32q-86 0 -86 88q0 46 30 79t75 33q86 0 86 -90zM1368 43q0 -56 -27 -56q-29 0 -79 7q-116 14 -149 14q-27 0 -114 -13q-46 -8 -77 -8q-68 0 -68 64
q0 22 39 41q53 26 72 47q38 42 38 119q0 74 -31 144q-40 88 -105 88q-21 0 -63.5 2.5t-64.5 2.5q-23 0 -66 -2q-46 -3 -67 -3q-90 -1 -159 -167q-52 -123 -52 -166q0 -39 78 -61.5t78 -52.5q0 -53 -66 -53q-34 0 -79 5q-104 9 -141 9q-57 0 -147 -14h-24q-70 0 -70 45
q0 50 70 64q95 20 113 34q84 68 138 203l146 361q84 211 147 376q51 137 81 189q42 73 81 73q47 0 70 -78q12 -49 38 -145q32 -97 88 -275q45 -153 80 -285q19 -77 58 -232q34 -126 83 -167q15 -13 95 -47q56 -25 56 -63zM887 670q0 25 -43 171q-54 181 -100 181
q-33 0 -103 -203q-47 -139 -47 -174q0 -49 56 -58q3 -1 96 -1h38q65 0 81 12q22 15 22 72z" />
    <glyph glyph-name="Aring" unicode="&#xc5;" horiz-adv-x="1420" 
d="M966 1611q0 -73 -48.5 -124t-121.5 -51q-61 0 -106 46t-45 107q0 72 49 124.5t121 52.5q64 0 107.5 -45.5t43.5 -109.5zM884 1611q0 73 -69 73q-37 0 -62.5 -28t-25.5 -67q0 -27 21 -49t48 -22q38 0 63 27t25 66zM1368 43q0 -56 -27 -56q-29 0 -79 7q-116 14 -149 14
q-27 0 -114 -13q-46 -8 -77 -8q-68 0 -68 64q0 22 39 41q53 26 72 47q38 42 38 119q0 74 -31 144q-40 88 -105 88q-21 0 -63.5 2.5t-64.5 2.5q-23 0 -66 -2q-46 -3 -67 -3q-90 -1 -159 -167q-52 -123 -52 -166q0 -39 78 -61.5t78 -52.5q0 -53 -66 -53q-34 0 -79 5
q-104 9 -141 9q-57 0 -147 -14h-24q-70 0 -70 45q0 50 70 64q95 20 113 34q84 68 138 203l146 361q84 211 147 376q51 137 81 189q42 73 81 73q47 0 70 -78q12 -49 38 -145q32 -97 88 -275q45 -153 80 -285q19 -77 58 -232q34 -126 83 -167q15 -13 95 -47q56 -25 56 -63z
M887 670q0 25 -43 171q-54 181 -100 181q-33 0 -103 -203q-47 -139 -47 -174q0 -49 56 -58q3 -1 96 -1h38q65 0 81 12q22 15 22 72z" />
    <glyph glyph-name="AE" unicode="&#xc6;" horiz-adv-x="1811" 
d="M1659 249q0 -20 -4 -60.5t-4 -60.5q0 -140 -117 -140q-62 0 -187.5 9t-188.5 9q-64 0 -191.5 -10.5t-191.5 -10.5q-60 0 -60 49q0 29 88 67q85 37 95 152q7 85 7 133q0 77 -13 89.5t-94 17.5q-48 2 -59 2q-25 0 -66 -2q-52 -2 -67 -3q-90 -3 -159 -167q-52 -123 -52 -166
q0 -39 78 -61.5t78 -52.5q0 -53 -66 -53q-37 0 -110 7t-110 7q-29 0 -86 -7t-85 -7q-70 0 -70 45q0 48 74 66q98 23 109 32q36 28 71 78q40 57 67 125l146 361q82 206 147 376q91 242 162 242q6 0 62 -13q60 -13 92 -16q115 -8 208 -8q88 0 166 4q234 13 239 13q37 0 37 -48
q0 -16 -1 -48t-1 -48q0 -15 4 -46t4 -47q0 -58 -31 -58q-16 0 -40 50q-39 81 -94 111q-58 33 -146 33q-117 0 -191 -41q-46 -25 -46 -254q0 -147 31 -182q37 -41 190 -41q12 0 36 -1t36 -1q76 0 115 33q16 14 43 61q18 34 45 34q21 0 21 -29q0 -23 -8.5 -69.5t-8.5 -69.5
q0 -22 2.5 -66.5t2.5 -66.5q0 -44 -19 -44q-29 0 -55 46q-34 62 -42 69q-44 41 -155 41q-162 0 -202 -16.5t-40 -70.5l-3 -191q0 -158 37 -198q47 -49 245 -49q11 0 33 -2t33 -2q67 0 103 25q33 23 61 85q50 112 78 112q18 0 18 -57zM918 842q0 34 -3 91l-4 92q-1 51 -16 96
q-22 63 -61 63q-44 0 -144 -236q-96 -229 -96 -303q0 -39 24 -50q21 -9 128 -9h98q66 0 66 51q0 34 4 102.5t4 102.5z" />
    <glyph glyph-name="Ccedilla" unicode="&#xc7;" horiz-adv-x="1283" 
d="M863 -263q0 -93 -73 -155q-69 -60 -163 -60q-151 0 -151 83q0 45 37 45q17 0 63 -25t76 -25q89 0 89 94q0 85 -87 85q-23 0 -44 -5q-25 26 -35 53l187 195l46 -15l-80 -115q135 -28 135 -155zM1233 1112q0 -9 -20.5 -98.5t-23.5 -95.5q-13 -21 -37 -21q-41 0 -41 20
q0 10 3 28.5t3 27.5q0 80 -78 154q-106 100 -276 100q-229 0 -358 -179q-116 -160 -116 -396q0 -233 119 -407q134 -199 356 -199q98 0 199 74q42 32 151 174q10 14 22 14q11 0 30 -13t19 -24q0 -7 -30 -93t-37 -101q-13 -26 -36 -40q-129 -77 -312 -77q-279 0 -476 187
q-201 191 -201 468q0 291 202.5 493.5t493.5 202.5q277 0 435 -178q9 -10 9 -21z" />
    <glyph glyph-name="Egrave" unicode="&#xc8;" horiz-adv-x="1219" 
d="M1067 249q0 -20 -4 -60.5t-4 -60.5q0 -140 -117 -140q-63 0 -188 9t-188 9q-64 0 -191.5 -10.5t-191.5 -10.5q-60 0 -60 49q0 27 88 67q73 33 95 160q7 101 14.5 200.5t7.5 175.5q0 -32 -9 388q-2 110 -55 147q-15 11 -95 28q-64 15 -64 39q0 18 32 38q29 18 49 18
q64 0 192 -8.5t192 -8.5q92 0 166 4q240 13 239 13q37 0 37 -48q0 -16 -1 -48t-1 -48t4 -46.5t4 -46.5q0 -58 -31 -58q-16 0 -40 50q-37 77 -85 107q-61 37 -155 37q-116 0 -191 -41q-46 -25 -46 -254q0 -147 31 -182q37 -41 190 -41q10 0 31 -1t31 -1q84 0 125 33
q18 15 42 62q18 33 46 33q21 0 21 -29q0 -23 -8.5 -69.5t-8.5 -69.5q0 -21 2.5 -62t2.5 -62q0 -53 -19 -53q-29 0 -54 46q-35 61 -43 69q-44 41 -155 41q-161 0 -201 -16t-41 -71q0 -21 -2 -96q-1 -58 -1 -95q0 -159 37 -198q46 -49 245 -49q11 0 33 -2t33 -2q67 0 103 25
q33 23 61 85q50 112 78 112q18 0 18 -57zM787 1425q0 -36 -32 -36q-35 0 -60 69q-27 74 -53 148q-33 85 -71 141q-52 77 -52 107q0 42 74 42q58 0 82 -66q5 -36 17 -108q7 -37 53 -151q42 -102 42 -146z" />
    <glyph glyph-name="Eacute" unicode="&#xc9;" horiz-adv-x="1219" 
d="M1067 249q0 -20 -4 -60.5t-4 -60.5q0 -140 -117 -140q-63 0 -188 9t-188 9q-64 0 -191.5 -10.5t-191.5 -10.5q-60 0 -60 49q0 27 88 67q73 33 95 160q7 101 14.5 200.5t7.5 175.5q0 -32 -9 388q-2 110 -55 147q-15 11 -95 28q-64 15 -64 39q0 18 32 38q29 18 49 18
q64 0 192 -8.5t192 -8.5q92 0 166 4q240 13 239 13q37 0 37 -48q0 -16 -1 -48t-1 -48t4 -46.5t4 -46.5q0 -58 -31 -58q-16 0 -40 50q-37 77 -85 107q-61 37 -155 37q-116 0 -191 -41q-46 -25 -46 -254q0 -147 31 -182q37 -41 190 -41q10 0 31 -1t31 -1q84 0 125 33
q18 15 42 62q18 33 46 33q21 0 21 -29q0 -23 -8.5 -69.5t-8.5 -69.5q0 -21 2.5 -62t2.5 -62q0 -53 -19 -53q-29 0 -54 46q-35 61 -43 69q-44 41 -155 41q-161 0 -201 -16t-41 -71q0 -21 -2 -96q-1 -58 -1 -95q0 -159 37 -198q46 -49 245 -49q11 0 33 -2t33 -2q67 0 103 25
q33 23 61 85q50 112 78 112q18 0 18 -57zM837 1854q0 -30 -52 -107q-39 -58 -124 -289q-25 -69 -60 -69q-32 0 -32 36q0 44 42 146q46 114 53 151q2 37 17 108q24 66 82 66q74 0 74 -42z" />
    <glyph glyph-name="Ecircumflex" unicode="&#xca;" horiz-adv-x="1219" 
d="M907 1405q0 -36 -32 -36q-35 0 -60 69q-94 257 -112 257q-29 0 -213 -272q-37 -54 -65 -54q-34 0 -34 30q0 38 70 137q87 122 96 142q94 198 156 198q66 0 99 -174q7 -37 54 -152q41 -100 41 -145zM1067 249q0 -20 -4 -60.5t-4 -60.5q0 -140 -117 -140q-63 0 -188 9
t-188 9q-64 0 -191.5 -10.5t-191.5 -10.5q-60 0 -60 49q0 27 88 67q73 33 95 160q7 101 14.5 200.5t7.5 175.5q0 -32 -9 388q-2 110 -55 147q-15 11 -95 28q-64 15 -64 39q0 18 32 38q29 18 49 18q64 0 192 -8.5t192 -8.5q92 0 166 4q240 13 239 13q37 0 37 -48
q0 -16 -1 -48t-1 -48t4 -46.5t4 -46.5q0 -58 -31 -58q-16 0 -40 50q-37 77 -85 107q-61 37 -155 37q-116 0 -191 -41q-46 -25 -46 -254q0 -147 31 -182q37 -41 190 -41q10 0 31 -1t31 -1q84 0 125 33q18 15 42 62q18 33 46 33q21 0 21 -29q0 -23 -8.5 -69.5t-8.5 -69.5
q0 -21 2.5 -62t2.5 -62q0 -53 -19 -53q-29 0 -54 46q-35 61 -43 69q-44 41 -155 41q-161 0 -201 -16t-41 -71q0 -21 -2 -96q-1 -58 -1 -95q0 -159 37 -198q46 -49 245 -49q11 0 33 -2t33 -2q67 0 103 25q33 23 61 85q50 112 78 112q18 0 18 -57z" />
    <glyph glyph-name="Edieresis" unicode="&#xcb;" horiz-adv-x="1219" 
d="M938 1616q0 -46 -29.5 -78t-75.5 -32q-86 0 -86 88q0 46 30 79t75 33q86 0 86 -90zM538 1626q0 -46 -29.5 -78t-75.5 -32q-86 0 -86 88q0 46 30 79t75 33q86 0 86 -90zM1067 249q0 -20 -4 -60.5t-4 -60.5q0 -140 -117 -140q-63 0 -188 9t-188 9q-64 0 -191.5 -10.5
t-191.5 -10.5q-60 0 -60 49q0 27 88 67q73 33 95 160q7 101 14.5 200.5t7.5 175.5q0 -32 -9 388q-2 110 -55 147q-15 11 -95 28q-64 15 -64 39q0 18 32 38q29 18 49 18q64 0 192 -8.5t192 -8.5q92 0 166 4q240 13 239 13q37 0 37 -48q0 -16 -1 -48t-1 -48t4 -46.5t4 -46.5
q0 -58 -31 -58q-16 0 -40 50q-37 77 -85 107q-61 37 -155 37q-116 0 -191 -41q-46 -25 -46 -254q0 -147 31 -182q37 -41 190 -41q10 0 31 -1t31 -1q84 0 125 33q18 15 42 62q18 33 46 33q21 0 21 -29q0 -23 -8.5 -69.5t-8.5 -69.5q0 -21 2.5 -62t2.5 -62q0 -53 -19 -53
q-29 0 -54 46q-35 61 -43 69q-44 41 -155 41q-161 0 -201 -16t-41 -71q0 -21 -2 -96q-1 -58 -1 -95q0 -159 37 -198q46 -49 245 -49q11 0 33 -2t33 -2q67 0 103 25q33 23 61 85q50 112 78 112q18 0 18 -57z" />
    <glyph glyph-name="Igrave" unicode="&#xcc;" horiz-adv-x="763" 
d="M614 1235q0 -34 -47 -44q-51 -10 -82 -57q-30 -43 -30 -97v-736q0 -173 98 -205q44 -14 44 -52q0 -54 -55 -54q-29 0 -87 8.5t-86 8.5q-29 0 -87 -8.5t-87 -8.5q-43 0 -43 46q0 18 72 55q55 28 73 96q10 41 10 132v716q0 121 -78 157q-69 32 -69 54q0 44 64 44
q30 0 59 -4q86 -9 99 -9q32 0 95 6.5t95 6.5q42 0 42 -55zM507 1425q0 -36 -32 -36q-35 0 -60 69q-27 74 -53 148q-33 85 -71 141q-52 77 -52 107q0 42 74 42q58 0 82 -66q5 -36 17 -108q7 -37 53 -151q42 -102 42 -146z" />
    <glyph glyph-name="Iacute" unicode="&#xcd;" horiz-adv-x="763" 
d="M614 1235q0 -34 -47 -44q-51 -10 -82 -57q-30 -43 -30 -97v-736q0 -173 98 -205q44 -14 44 -52q0 -54 -55 -54q-29 0 -87 8.5t-86 8.5q-29 0 -87 -8.5t-87 -8.5q-43 0 -43 46q0 18 72 55q55 28 73 96q10 41 10 132v716q0 121 -78 157q-69 32 -69 54q0 44 64 44
q30 0 59 -4q86 -9 99 -9q32 0 95 6.5t95 6.5q42 0 42 -55zM577 1854q0 -30 -52 -107q-39 -58 -124 -289q-25 -69 -60 -69q-32 0 -32 36q0 44 42 146q46 114 53 151q2 37 17 108q24 66 82 66q74 0 74 -42z" />
    <glyph glyph-name="Icircumflex" unicode="&#xce;" horiz-adv-x="763" 
d="M647 1405q0 -36 -32 -36q-35 0 -60 69q-94 257 -112 257q-29 0 -213 -272q-37 -54 -65 -54q-34 0 -34 30q0 38 70 137q87 122 96 142q94 198 156 198q66 0 99 -174q7 -37 54 -152q41 -100 41 -145zM614 1235q0 -34 -47 -44q-51 -10 -82 -57q-30 -43 -30 -97v-736
q0 -173 98 -205q44 -14 44 -52q0 -54 -55 -54q-29 0 -87 8.5t-86 8.5q-29 0 -87 -8.5t-87 -8.5q-43 0 -43 46q0 18 72 55q55 28 73 96q10 41 10 132v716q0 121 -78 157q-69 32 -69 54q0 44 64 44q30 0 59 -4q86 -9 99 -9q32 0 95 6.5t95 6.5q42 0 42 -55z" />
    <glyph glyph-name="Idieresis" unicode="&#xcf;" horiz-adv-x="763" 
d="M698 1616q0 -46 -29.5 -78t-75.5 -32q-86 0 -86 88q0 46 30 79t75 33q86 0 86 -90zM298 1626q0 -46 -29.5 -78t-75.5 -32q-86 0 -86 88q0 46 30 79t75 33q86 0 86 -90zM614 1235q0 -34 -47 -44q-51 -10 -82 -57q-30 -43 -30 -97v-736q0 -173 98 -205q44 -14 44 -52
q0 -54 -55 -54q-29 0 -87 8.5t-86 8.5q-29 0 -87 -8.5t-87 -8.5q-43 0 -43 46q0 18 72 55q55 28 73 96q10 41 10 132v716q0 121 -78 157q-69 32 -69 54q0 44 64 44q30 0 59 -4q86 -9 99 -9q32 0 95 6.5t95 6.5q42 0 42 -55z" />
    <glyph glyph-name="Eth" unicode="&#xd0;" horiz-adv-x="1479" 
d="M1407 671q0 -279 -189 -480q-192 -206 -469 -206q-109 0 -243.5 11t-146.5 11q-29 0 -87 -8.5t-87 -8.5q-43 0 -43 46q0 18 72 55q69 35 73 139q6 92 15 257q4 68 5 122l-112 -1q-50 0 -50 23q0 61 55 79q29 9 107 9v316q0 83 -36 128q-19 25 -65 48q-36 18 -36 35
q0 44 64 44q23 0 59 -4q82 -9 99 -9q29 0 149 11.5t227 11.5q259 0 449 -185t190 -444zM1221 603q0 245 -122 420q-135 194 -357 194q-81 0 -165 -24q-106 -30 -106 -126q0 -69 -16 -293q-1 -18 -3 -53q76 0 124 -3q80 -5 73 -5q33 0 99 4t99 4q28 0 28 -22q0 -88 -154 -88
q-23 0 -67.5 3t-67.5 3q8 0 -90 -4l-49 -2v-35q0 -184 1 -245l2 -121q1 -85 93 -114q77 -24 200 -24q216 0 349 153q129 149 129 378z" />
    <glyph glyph-name="Ntilde" unicode="&#xd1;" horiz-adv-x="1539" 
d="M1149 1678q0 -74 -44 -125q-45 -54 -118 -54q-77 0 -124 52q-33 48 -67 96q-41 52 -106 52q-55 0 -83 -52q-17 -48 -35 -96q-19 -52 -56 -52q-41 0 -41 49q0 110 66 180.5t176 70.5q71 0 122 -54q12 -13 70 -102q36 -54 70 -54q38 0 64 73.5t65 73.5q41 0 41 -58z
M1468 1260q0 -27 -76.5 -76.5t-76.5 -104.5q0 -115 -3 -235q-4 -217 -4 -210v-13q0 -35 2 -217l3 -238q0 -30 15.5 -84t15.5 -79q0 -43 -51 -43q-74 0 -209 175q-43 55 -92 120l-122 158q-41 53 -136 173q-30 38 -80 98l-78 94q-24 27 -69 82q-73 91 -99 91q-20 0 -33 -122
q-11 -94 -11 -160v-23q0 -39 2 -192q1 -94 3 -252q0 -53 69.5 -98t69.5 -67q0 -52 -30 -52q-11 2 -87 16q-46 9 -78 9q-29 0 -83 -9t-78 -9q-37 0 -37 42q0 16 43 42q57 34 78 56q43 44 43 107q0 68 2 225l2 178q0 68 -3 203l-2 180q0 76 -46 122q-33 32 -101 96q0 18 14 37
t31 19q26 0 132 -27l135 -35q10 -3 43 -50q14 -19 41 -58q45 -66 115 -159q98 -131 216 -276q44 -54 99 -126l106 -136q47 -60 106 -132q12 -15 27 -15q32 0 31 68l-2 383q0 114 -3 227l-4 154q0 37 -77.5 72.5t-77.5 67.5q0 36 26 36q33 0 96.5 -10t95.5 -10q25 0 71.5 10
t70.5 10q45 0 45 -33z" />
    <glyph glyph-name="Ograve" unicode="&#xd2;" 
d="M1446 663q0 -286 -194 -492q-198 -211 -482 -211q-279 0 -476 187q-201 191 -201 468q0 291 202.5 493.5t493.5 202.5q267 0 462 -190.5t195 -457.5zM1260 596q0 249 -126 430q-140 201 -371 201t-361 -183q-113 -161 -113 -392q0 -139 50 -271q54 -144 149 -230
q116 -105 276 -105q229 0 367 163q129 153 129 387zM907 1425q0 -36 -32 -36q-35 0 -60 69q-27 74 -53 148q-33 85 -71 141q-52 77 -52 107q0 42 74 42q58 0 82 -66q5 -36 17 -108q7 -37 53 -151q42 -102 42 -146z" />
    <glyph glyph-name="Oacute" unicode="&#xd3;" 
d="M1446 663q0 -286 -194 -492q-198 -211 -482 -211q-279 0 -476 187q-201 191 -201 468q0 291 202.5 493.5t493.5 202.5q267 0 462 -190.5t195 -457.5zM1260 596q0 249 -126 430q-140 201 -371 201t-361 -183q-113 -161 -113 -392q0 -139 50 -271q54 -144 149 -230
q116 -105 276 -105q229 0 367 163q129 153 129 387zM957 1854q0 -30 -52 -107q-39 -58 -124 -289q-25 -69 -60 -69q-32 0 -32 36q0 44 42 146q46 114 53 151q2 37 17 108q24 66 82 66q74 0 74 -42z" />
    <glyph glyph-name="Ocircumflex" unicode="&#xd4;" 
d="M1057 1405q0 -36 -32 -36q-35 0 -60 69q-94 257 -112 257q-29 0 -213 -272q-37 -54 -65 -54q-34 0 -34 30q0 38 70 137q87 122 96 142q94 198 156 198q66 0 99 -174q7 -37 54 -152q41 -100 41 -145zM1446 663q0 -286 -194 -492q-198 -211 -482 -211q-279 0 -476 187
q-201 191 -201 468q0 291 202.5 493.5t493.5 202.5q267 0 462 -190.5t195 -457.5zM1260 596q0 249 -126 430q-140 201 -371 201t-361 -183q-113 -161 -113 -392q0 -139 50 -271q54 -144 149 -230q116 -105 276 -105q229 0 367 163q129 153 129 387z" />
    <glyph glyph-name="Otilde" unicode="&#xd5;" 
d="M1139 1678q0 -74 -44 -125q-45 -54 -118 -54q-77 0 -124 52q-33 48 -67 96q-41 52 -106 52q-55 0 -83 -52q-17 -48 -35 -96q-19 -52 -56 -52q-41 0 -41 49q0 110 66 180.5t176 70.5q71 0 122 -54q12 -13 70 -102q36 -54 70 -54q38 0 64 73.5t65 73.5q41 0 41 -58z
M1446 663q0 -286 -194 -492q-198 -211 -482 -211q-279 0 -476 187q-201 191 -201 468q0 291 202.5 493.5t493.5 202.5q267 0 462 -190.5t195 -457.5zM1260 596q0 249 -126 430q-140 201 -371 201t-361 -183q-113 -161 -113 -392q0 -139 50 -271q54 -144 149 -230
q116 -105 276 -105q229 0 367 163q129 153 129 387z" />
    <glyph glyph-name="Odieresis" unicode="&#xd6;" 
d="M1078 1616q0 -46 -29.5 -78t-75.5 -32q-86 0 -86 88q0 46 30 79t75 33q86 0 86 -90zM678 1626q0 -46 -29.5 -78t-75.5 -32q-86 0 -86 88q0 46 30 79t75 33q86 0 86 -90zM1446 663q0 -286 -194 -492q-198 -211 -482 -211q-279 0 -476 187q-201 191 -201 468
q0 291 202.5 493.5t493.5 202.5q267 0 462 -190.5t195 -457.5zM1260 596q0 249 -126 430q-140 201 -371 201t-361 -183q-113 -161 -113 -392q0 -139 50 -271q54 -144 149 -230q116 -105 276 -105q229 0 367 163q129 153 129 387z" />
    <glyph glyph-name="multiply" unicode="&#xd7;" horiz-adv-x="1106" 
d="M987 808q0 -10 -8 -18l-332 -332l332 -332q7 -7 7 -18t-7 -18l-53 -53q-8 -8 -18 -8t-18 8l-332 332l-332 -332q-7 -7 -18 -7t-18 7l-53 53q-8 8 -8 18t8 18l332 332l-332 332q-8 8 -8 18t8 18q61 61 71 61t18 -8l332 -332l332 332q8 8 18 8t18 -8q61 -61 61 -71z" />
    <glyph glyph-name="Oslash" unicode="&#xd8;" 
d="M1446 663q0 -286 -194 -492q-198 -211 -482 -211q-211 0 -373 106q-60 -90 -90 -138q-14 -23 -27 -45q-20 -26 -43 -26q-17 0 -43 16t-26 33q0 45 133 236q-208 199 -208 473q0 291 202.5 493.5t493.5 202.5q183 0 335 -93q91 119 93 121q70 80 115 80q33 0 65 -59
q-1 -18 -27 -49q-49 -55 -146 -167q222 -197 222 -481zM1050 1122q-119 105 -287 105q-228 0 -358 -179q-116 -159 -116 -396q0 -212 104 -385zM1260 596q0 258 -130 436q-400 -480 -663 -861q123 -125 297 -125q229 0 367 163q129 153 129 387z" />
    <glyph glyph-name="Ugrave" unicode="&#xd9;" horiz-adv-x="1540" 
d="M1430 1246q0 -13 -68.5 -53.5t-68.5 -157.5v-516q0 -245 -138 -399q-143 -160 -385 -160t-385 160q-138 154 -138 399v516q0 117 -68.5 157.5t-68.5 53.5q0 44 64 44q27 0 79 -6.5t79 -6.5q32 0 95 6.5t95 6.5q42 0 42 -55q0 -25 -52 -46q-65 -27 -81 -47
q-36 -44 -36 -288v-289q0 -204 84 -346q101 -173 291 -173q189 0 291 173q84 142 84 346v289q0 244 -36 288q-16 20 -81 47q-52 21 -52 46q0 55 42 55q32 0 95 -6.5t95 -6.5q26 0 78.5 6.5t78.5 6.5q65 0 65 -44zM887 1425q0 -36 -32 -36q-35 0 -60 69q-27 74 -53 148
q-33 85 -71 141q-52 77 -52 107q0 42 74 42q58 0 82 -66q5 -36 17 -108q7 -37 53 -151q42 -102 42 -146z" />
    <glyph glyph-name="Uacute" unicode="&#xda;" horiz-adv-x="1540" 
d="M1430 1246q0 -13 -68.5 -53.5t-68.5 -157.5v-516q0 -245 -138 -399q-143 -160 -385 -160t-385 160q-138 154 -138 399v516q0 117 -68.5 157.5t-68.5 53.5q0 44 64 44q27 0 79 -6.5t79 -6.5q32 0 95 6.5t95 6.5q42 0 42 -55q0 -25 -52 -46q-65 -27 -81 -47
q-36 -44 -36 -288v-289q0 -204 84 -346q101 -173 291 -173q189 0 291 173q84 142 84 346v289q0 244 -36 288q-16 20 -81 47q-52 21 -52 46q0 55 42 55q32 0 95 -6.5t95 -6.5q26 0 78.5 6.5t78.5 6.5q65 0 65 -44zM977 1854q0 -30 -52 -107q-39 -58 -124 -289
q-25 -69 -60 -69q-32 0 -32 36q0 44 42 146q46 114 53 151q2 37 17 108q24 66 82 66q74 0 74 -42z" />
    <glyph glyph-name="Ucircumflex" unicode="&#xdb;" horiz-adv-x="1540" 
d="M1057 1405q0 -36 -32 -36q-35 0 -60 69q-94 257 -112 257q-29 0 -213 -272q-37 -54 -65 -54q-34 0 -34 30q0 38 70 137q87 122 96 142q94 198 156 198q66 0 99 -174q7 -37 54 -152q41 -100 41 -145zM1430 1246q0 -13 -68.5 -53.5t-68.5 -157.5v-516q0 -245 -138 -399
q-143 -160 -385 -160t-385 160q-138 154 -138 399v516q0 117 -68.5 157.5t-68.5 53.5q0 44 64 44q27 0 79 -6.5t79 -6.5q32 0 95 6.5t95 6.5q42 0 42 -55q0 -25 -52 -46q-65 -27 -81 -47q-36 -44 -36 -288v-289q0 -204 84 -346q101 -173 291 -173q189 0 291 173
q84 142 84 346v289q0 244 -36 288q-16 20 -81 47q-52 21 -52 46q0 55 42 55q32 0 95 -6.5t95 -6.5q26 0 78.5 6.5t78.5 6.5q65 0 65 -44z" />
    <glyph glyph-name="Udieresis" unicode="&#xdc;" horiz-adv-x="1540" 
d="M1088 1616q0 -46 -29.5 -78t-75.5 -32q-86 0 -86 88q0 46 30 79t75 33q86 0 86 -90zM688 1626q0 -46 -29.5 -78t-75.5 -32q-86 0 -86 88q0 46 30 79t75 33q86 0 86 -90zM1430 1246q0 -13 -68.5 -53.5t-68.5 -157.5v-516q0 -245 -138 -399q-143 -160 -385 -160t-385 160
q-138 154 -138 399v516q0 117 -68.5 157.5t-68.5 53.5q0 44 64 44q27 0 79 -6.5t79 -6.5q32 0 95 6.5t95 6.5q42 0 42 -55q0 -25 -52 -46q-65 -27 -81 -47q-36 -44 -36 -288v-289q0 -204 84 -346q101 -173 291 -173q189 0 291 173q84 142 84 346v289q0 244 -36 288
q-16 20 -81 47q-52 21 -52 46q0 55 42 55q32 0 95 -6.5t95 -6.5q26 0 78.5 6.5t78.5 6.5q65 0 65 -44z" />
    <glyph glyph-name="Yacute" unicode="&#xdd;" horiz-adv-x="1526" 
d="M1411 1226q0 -61 -138 -61q-56 0 -194 -174q-59 -75 -105 -128.5t-132 -164.5q-18 -25 -19 -41q-5 -119 -5 -358q0 -20 -3 -59t-3 -58q0 -62 81 -95t81 -58q0 -42 -74 -42q-31 0 -91.5 7t-90.5 7q-25 0 -73 -7.5t-73 -7.5q-123 0 -123 50q0 24 71 51q86 32 109 57
q14 14 18 39t4 114q0 48 3.5 144.5t3.5 145.5q0 37 -27 75q-106 147 -174 239q-43 63 -86 125q-56 81 -93 114q-41 36 -76 36q-98 0 -98 63q0 50 72 50q27 0 79.5 -4.5t78.5 -4.5q31 0 94 4.5t95 4.5q72 0 72 -42q0 -32 -44.5 -52.5t-44.5 -53.5q0 -22 25 -58
q36 -49 106 -148q31 -50 100 -141q25 -27 38 -27q11 0 30 21q97 110 215 258q34 42 34 85q0 30 -89 52t-89 56q0 50 87 50q30 0 90 -5.5t90 -5.5t91.5 5.5t91.5 5.5q85 0 85 -63zM957 1854q0 -30 -52 -107q-39 -58 -124 -289q-25 -69 -60 -69q-32 0 -32 36q0 44 42 146
q46 114 53 151q2 37 17 108q24 66 82 66q74 0 74 -42z" />
    <glyph glyph-name="Thorn" unicode="&#xde;" horiz-adv-x="1120" 
d="M999 750q0 -168 -116 -299q-121 -136 -287 -136q-63 0 -63 32q0 15 57 35q36 13 73 25q168 81 168 305q0 113 -90 194q-87 77 -202 77q-99 0 -109 -53q-2 -10 -5 -88q-5 -125 -5 -192q0 -71 5.5 -212.5t5.5 -212.5q0 -63 50 -101q9 -8 91 -49q50 -25 50 -57
q0 -34 -46 -34q-35 0 -104 9.5t-104 9.5q-36 0 -107.5 -8.5t-107.5 -8.5q-46 0 -46 34q0 21 41 46q59 36 77 54q41 42 41 103q0 66 4.5 197.5t4.5 197.5q0 79 -4 201q-6 172 -7 200q-3 134 -70 174q-70 42 -70 52q0 54 64 54q29 0 87.5 -9.5t87.5 -9.5q31 0 92 8.5t92 8.5
q47 0 47 -34q0 -17 -79.5 -69.5t-79.5 -120.5q0 -21 20 -19l8 1q80 10 162 10q158 0 260 -77q114 -86 114 -238z" />
    <glyph glyph-name="germandbls" unicode="&#xdf;" horiz-adv-x="1108" 
d="M1163 1217q0 -167 -120 -298q-54 -59 -221 -179q-120 -85 -120 -139q0 -43 77 -111q138 -122 143 -127q77 -82 77 -159q0 -92 -74 -150q-68 -54 -162 -54q-82 0 -153 33q-90 42 -90 114q0 101 32 101q1 0 6 -1q110 -102 193 -102q93 0 93 79q0 37 -57 94q-92 90 -107 109
q-57 74 -57 153q0 130 149 266l168 144q76 81 76 201q0 114 -49 191q-58 91 -167 91q-86 0 -139 -81q-24 -37 -108 -344l-242 -873q-39 -164 -134 -487q-22 -61 -60 -107q-49 -60 -101 -60q-71 0 -130 31q-72 37 -72 101q0 66 70 66q12 0 36 -5t36 -5q45 0 80 43
q64 79 391 1389q59 236 116 318q95 133 298 133q143 0 236 -118q86 -110 86 -257z" />
    <glyph glyph-name="agrave" unicode="&#xe0;" horiz-adv-x="956" 
d="M687 1024q0 -35 -30 -35q-36 0 -67 83l-66 182q-40 104 -85 173q-63 97 -63 130q0 49 75 49q59 0 89 -79q8 -44 26 -133q9 -41 69 -190q52 -130 52 -180zM869 291q0 -65 -106 -175.5t-171 -110.5q-101 0 -101 110q0 23 8.5 68t8.5 68q0 27 -16 27q-8 0 -147.5 -139
t-207.5 -139q-57 0 -91 45q-32 41 -32 99q0 184 175 416q187 249 395 290q43 7 127 24q72 49 80 49q29 0 29 -35q0 -18 -10 -44l-120 -307q-77 -197 -77 -287q0 -79 66 -79q27 0 93.5 71.5t79.5 71.5q17 0 17 -23zM621 679q0 37 -64 37h-13q-117 0 -261 -173
q-140 -169 -140 -289q0 -81 59 -81q105 0 264 201q155 195 155 305z" />
    <glyph glyph-name="aacute" unicode="&#xe1;" horiz-adv-x="956" 
d="M857 1557q0 -33 -63 -130q-45 -69 -85 -173l-66 -182q-31 -83 -67 -83q-30 0 -30 35q0 50 52 180q60 149 69 190q5 45 26 133q30 79 89 79q75 0 75 -49zM869 291q0 -65 -106 -175.5t-171 -110.5q-101 0 -101 110q0 23 8.5 68t8.5 68q0 27 -16 27q-8 0 -147.5 -139
t-207.5 -139q-57 0 -91 45q-32 41 -32 99q0 184 175 416q187 249 395 290q43 7 127 24q72 49 80 49q29 0 29 -35q0 -18 -10 -44l-120 -307q-77 -197 -77 -287q0 -79 66 -79q27 0 93.5 71.5t79.5 71.5q17 0 17 -23zM621 679q0 37 -64 37h-13q-117 0 -261 -173
q-140 -169 -140 -289q0 -81 59 -81q105 0 264 201q155 195 155 305z" />
    <glyph glyph-name="acircumflex" unicode="&#xe2;" horiz-adv-x="956" 
d="M877 1105q0 -36 -32 -36q-35 0 -60 69q-94 257 -112 257q-29 0 -213 -272q-37 -54 -65 -54q-34 0 -34 30q0 38 70 137q87 122 96 142q94 198 156 198q66 0 99 -174q7 -37 54 -152q41 -100 41 -145zM869 291q0 -65 -106 -175.5t-171 -110.5q-101 0 -101 110q0 23 8.5 68
t8.5 68q0 27 -16 27q-8 0 -147.5 -139t-207.5 -139q-57 0 -91 45q-32 41 -32 99q0 184 175 416q187 249 395 290q43 7 127 24q72 49 80 49q29 0 29 -35q0 -18 -10 -44l-120 -307q-77 -197 -77 -287q0 -79 66 -79q27 0 93.5 71.5t79.5 71.5q17 0 17 -23zM621 679q0 37 -64 37
h-13q-117 0 -261 -173q-140 -169 -140 -289q0 -81 59 -81q105 0 264 201q155 195 155 305z" />
    <glyph glyph-name="atilde" unicode="&#xe3;" horiz-adv-x="956" 
d="M989 1348q0 -74 -44 -125q-45 -54 -118 -54q-77 0 -124 52q-33 48 -67 96q-41 52 -106 52q-55 0 -83 -52q-17 -48 -35 -96q-19 -52 -56 -52q-41 0 -41 49q0 110 66 180.5t176 70.5q71 0 122 -54q12 -13 70 -102q36 -54 70 -54q38 0 64 73.5t65 73.5q41 0 41 -58zM869 291
q0 -65 -106 -175.5t-171 -110.5q-101 0 -101 110q0 23 8.5 68t8.5 68q0 27 -16 27q-8 0 -147.5 -139t-207.5 -139q-57 0 -91 45q-32 41 -32 99q0 184 175 416q187 249 395 290q43 7 127 24q72 49 80 49q29 0 29 -35q0 -18 -10 -44l-120 -307q-77 -197 -77 -287q0 -79 66 -79
q27 0 93.5 71.5t79.5 71.5q17 0 17 -23zM621 679q0 37 -64 37h-13q-117 0 -261 -173q-140 -169 -140 -289q0 -81 59 -81q105 0 264 201q155 195 155 305z" />
    <glyph glyph-name="adieresis" unicode="&#xe4;" horiz-adv-x="956" 
d="M902 1201q0 -47 -28 -81t-74 -34q-79 0 -79 84q0 46 29.5 81t74.5 35q77 0 77 -85zM532 1221q0 -47 -28 -81t-74 -34q-79 0 -79 84q0 46 29.5 81t74.5 35q77 0 77 -85zM869 291q0 -65 -106 -175.5t-171 -110.5q-101 0 -101 110q0 23 8.5 68t8.5 68q0 27 -16 27
q-8 0 -147.5 -139t-207.5 -139q-57 0 -91 45q-32 41 -32 99q0 184 175 416q187 249 395 290q43 7 127 24q72 49 80 49q29 0 29 -35q0 -18 -10 -44l-120 -307q-77 -197 -77 -287q0 -79 66 -79q27 0 93.5 71.5t79.5 71.5q17 0 17 -23zM621 679q0 37 -64 37h-13
q-117 0 -261 -173q-140 -169 -140 -289q0 -81 59 -81q105 0 264 201q155 195 155 305z" />
    <glyph glyph-name="aring" unicode="&#xe5;" horiz-adv-x="956" 
d="M756 1211q0 -73 -48.5 -124t-121.5 -51q-61 0 -106 46t-45 107q0 72 49 124.5t121 52.5q64 0 107.5 -45.5t43.5 -109.5zM674 1211q0 73 -69 73q-37 0 -62.5 -28t-25.5 -67q0 -27 21 -49t48 -22q38 0 63 27t25 66zM869 291q0 -65 -106 -175.5t-171 -110.5q-101 0 -101 110
q0 23 8.5 68t8.5 68q0 27 -16 27q-8 0 -147.5 -139t-207.5 -139q-57 0 -91 45q-32 41 -32 99q0 184 175 416q187 249 395 290q43 7 127 24q72 49 80 49q29 0 29 -35q0 -18 -10 -44l-120 -307q-77 -197 -77 -287q0 -79 66 -79q27 0 93.5 71.5t79.5 71.5q17 0 17 -23zM621 679
q0 37 -64 37h-13q-117 0 -261 -173q-140 -169 -140 -289q0 -81 59 -81q105 0 264 201q155 195 155 305z" />
    <glyph glyph-name="ae" unicode="&#xe6;" horiz-adv-x="1209" 
d="M1186 682q0 -102 -112 -181q-102 -72 -208 -72q-17 0 -49 6t-49 6q-99 0 -99 -154q0 -150 143 -150q82 0 173 69t85 69q61 0 61 -31q0 -11 -11 -32q-50 -95 -141 -153.5t-196 -58.5q-219 0 -243 280q-2 27 -16 27t-165 -153.5t-222 -153.5q-57 0 -91 45q-32 41 -32 99
q0 184 175 416q187 249 395 290q43 7 127 24q72 49 80 49q29 0 29 -35q0 -18 -10 -44l-13 -34q89 51 194 51q76 0 135.5 -52t59.5 -127zM1045 638q0 42 -31.5 72t-73.5 30q-54 0 -107 -58.5t-53 -112.5q0 -24 28 -43q25 -16 51 -16q55 0 117 36q69 41 69 92zM621 679
q0 37 -64 37h-13q-117 0 -261 -173q-140 -169 -140 -289q0 -81 59 -81q105 0 264 201q155 195 155 305z" />
    <glyph glyph-name="ccedilla" unicode="&#xe7;" horiz-adv-x="740" 
d="M354 -263q0 -93 -73 -155q-69 -60 -163 -60q-151 0 -151 83q0 45 37 45q17 0 63 -25t76 -25q89 0 89 94q0 85 -87 85q-23 0 -44 -5q-25 26 -35 53l187 195l46 -15l-80 -115q135 -28 135 -155zM695 755q0 -77 -82 -77q-19 0 -63 31t-71 31q-161 0 -267 -156
q-95 -139 -95 -308q0 -63 36.5 -101t98.5 -38q47 0 128.5 38.5t101.5 38.5q54 0 54 -49q0 -68 -116 -120q-98 -45 -176 -45q-127 0 -191 97q-54 83 -54 216q0 184 101 332q105 155 278 204q42 12 85 12q71 0 139 -22q93 -29 93 -84z" />
    <glyph glyph-name="egrave" unicode="&#xe8;" horiz-adv-x="669" 
d="M557 1024q0 -35 -30 -35q-36 0 -67 83l-66 182q-40 104 -85 173q-63 97 -63 130q0 49 75 49q59 0 89 -79q8 -44 26 -133q9 -41 69 -190q52 -130 52 -180zM646 682q0 -102 -112 -181q-102 -72 -208 -72q-17 0 -49 6t-49 6q-99 0 -99 -154q0 -150 143 -150q82 0 173 69
t85 69q61 0 61 -31q0 -11 -11 -32q-50 -95 -141 -153.5t-196 -58.5q-127 0 -191 99q-53 83 -53 217q0 208 120 369q131 176 332 176q76 0 135.5 -52t59.5 -127zM505 638q0 42 -31.5 72t-73.5 30q-54 0 -107 -58.5t-53 -112.5q0 -24 28 -43q25 -16 51 -16q55 0 117 36
q69 41 69 92z" />
    <glyph glyph-name="eacute" unicode="&#xe9;" horiz-adv-x="669" 
d="M687 1557q0 -33 -63 -130q-45 -69 -85 -173l-66 -182q-31 -83 -67 -83q-30 0 -30 35q0 50 52 180q60 149 69 190q5 45 26 133q30 79 89 79q75 0 75 -49zM646 682q0 -102 -112 -181q-102 -72 -208 -72q-17 0 -49 6t-49 6q-99 0 -99 -154q0 -150 143 -150q82 0 173 69
t85 69q61 0 61 -31q0 -11 -11 -32q-50 -95 -141 -153.5t-196 -58.5q-127 0 -191 99q-53 83 -53 217q0 208 120 369q131 176 332 176q76 0 135.5 -52t59.5 -127zM505 638q0 42 -31.5 72t-73.5 30q-54 0 -107 -58.5t-53 -112.5q0 -24 28 -43q25 -16 51 -16q55 0 117 36
q69 41 69 92z" />
    <glyph glyph-name="ecircumflex" unicode="&#xea;" horiz-adv-x="669" 
d="M757 1105q0 -36 -32 -36q-35 0 -60 69q-94 257 -112 257q-29 0 -213 -272q-37 -54 -65 -54q-34 0 -34 30q0 38 70 137q87 122 96 142q94 198 156 198q66 0 99 -174q7 -37 54 -152q41 -100 41 -145zM646 682q0 -102 -112 -181q-102 -72 -208 -72q-17 0 -49 6t-49 6
q-99 0 -99 -154q0 -150 143 -150q82 0 173 69t85 69q61 0 61 -31q0 -11 -11 -32q-50 -95 -141 -153.5t-196 -58.5q-127 0 -191 99q-53 83 -53 217q0 208 120 369q131 176 332 176q76 0 135.5 -52t59.5 -127zM505 638q0 42 -31.5 72t-73.5 30q-54 0 -107 -58.5t-53 -112.5
q0 -24 28 -43q25 -16 51 -16q55 0 117 36q69 41 69 92z" />
    <glyph glyph-name="edieresis" unicode="&#xeb;" horiz-adv-x="669" 
d="M752 1201q0 -47 -28 -81t-74 -34q-79 0 -79 84q0 46 29.5 81t74.5 35q77 0 77 -85zM382 1221q0 -47 -28 -81t-74 -34q-79 0 -79 84q0 46 29.5 81t74.5 35q77 0 77 -85zM646 682q0 -102 -112 -181q-102 -72 -208 -72q-17 0 -49 6t-49 6q-99 0 -99 -154q0 -150 143 -150
q82 0 173 69t85 69q61 0 61 -31q0 -11 -11 -32q-50 -95 -141 -153.5t-196 -58.5q-127 0 -191 99q-53 83 -53 217q0 208 120 369q131 176 332 176q76 0 135.5 -52t59.5 -127zM505 638q0 42 -31.5 72t-73.5 30q-54 0 -107 -58.5t-53 -112.5q0 -24 28 -43q25 -16 51 -16
q55 0 117 36q69 41 69 92z" />
    <glyph glyph-name="igrave" unicode="&#xec;" horiz-adv-x="547" 
d="M467 1024q0 -35 -30 -35q-36 0 -67 83l-66 182q-40 104 -85 173q-63 97 -63 130q0 49 75 49q59 0 89 -79q8 -44 26 -133q9 -41 69 -190q52 -130 52 -180zM426 818q0 -32 -36 -92q-28 -44 -55 -89q-40 -83 -81 -206q-48 -146 -48 -211q0 -48 68 -48q15 0 39 14.5t38 14.5
q27 0 27 -27q0 -51 -102 -115q-96 -59 -152 -59q-91 0 -91 122q0 77 72.5 250.5t72.5 218.5q0 20 -43 31q-59 14 -61 15q4 41 123 132.5t162 91.5q67 0 67 -43z" />
    <glyph glyph-name="iacute" unicode="&#xed;" horiz-adv-x="547" 
d="M627 1557q0 -33 -63 -130q-45 -69 -85 -173l-66 -182q-31 -83 -67 -83q-30 0 -30 35q0 50 52 180q60 149 69 190q5 45 26 133q30 79 89 79q75 0 75 -49zM426 818q0 -32 -36 -92q-28 -44 -55 -89q-40 -83 -81 -206q-48 -146 -48 -211q0 -48 68 -48q15 0 39 14.5t38 14.5
q27 0 27 -27q0 -51 -102 -115q-96 -59 -152 -59q-91 0 -91 122q0 77 72.5 250.5t72.5 218.5q0 20 -43 31q-59 14 -61 15q4 41 123 132.5t162 91.5q67 0 67 -43z" />
    <glyph glyph-name="icircumflex" unicode="&#xee;" horiz-adv-x="547" 
d="M637 1105q0 -36 -32 -36q-35 0 -60 69q-94 257 -112 257q-29 0 -213 -272q-37 -54 -65 -54q-34 0 -34 30q0 38 70 137q87 122 96 142q94 198 156 198q66 0 99 -174q7 -37 54 -152q41 -100 41 -145zM426 818q0 -32 -36 -92q-28 -44 -55 -89q-40 -83 -81 -206
q-48 -146 -48 -211q0 -48 68 -48q15 0 39 14.5t38 14.5q27 0 27 -27q0 -51 -102 -115q-96 -59 -152 -59q-91 0 -91 122q0 77 72.5 250.5t72.5 218.5q0 20 -43 31q-59 14 -61 15q4 41 123 132.5t162 91.5q67 0 67 -43z" />
    <glyph glyph-name="idieresis" unicode="&#xef;" horiz-adv-x="547" 
d="M672 1201q0 -47 -28 -81t-74 -34q-79 0 -79 84q0 46 29.5 81t74.5 35q77 0 77 -85zM302 1221q0 -47 -28 -81t-74 -34q-79 0 -79 84q0 46 29.5 81t74.5 35q77 0 77 -85zM426 818q0 -32 -36 -92q-28 -44 -55 -89q-40 -83 -81 -206q-48 -146 -48 -211q0 -48 68 -48
q15 0 39 14.5t38 14.5q27 0 27 -27q0 -51 -102 -115q-96 -59 -152 -59q-91 0 -91 122q0 77 72.5 250.5t72.5 218.5q0 20 -43 31q-59 14 -61 15q4 41 123 132.5t162 91.5q67 0 67 -43z" />
    <glyph glyph-name="eth" unicode="&#xf0;" horiz-adv-x="833" 
d="M952 1448q0 -54 -84 -98q-26 -13 -131 -52q74 -165 74 -355q0 -292 -130 -583q-161 -360 -415 -360q-120 0 -185 84q-58 76 -58 200q0 206 125 383q138 194 336 194q59 0 121 -23q5 -2 9 -2q65 0 65 243q0 96 -34 179q-330 -158 -362 -158q-33 0 -33 49q0 41 52 74
q12 7 88 41q66 30 201 88q-94 124 -251 151q-21 17 -21 36q0 47 83 47q89 0 187 -83q56 -48 100 -116q17 6 123 59q94 46 109 46q31 0 31 -44zM617 593q0 147 -144 147q-123 0 -228 -179q-94 -160 -94 -294q0 -130 129 -130q126 0 236 169q101 153 101 287z" />
    <glyph glyph-name="ntilde" unicode="&#xf1;" horiz-adv-x="934" 
d="M939 1348q0 -74 -44 -125q-45 -54 -118 -54q-77 0 -124 52q-33 48 -67 96q-41 52 -106 52q-55 0 -83 -52q-17 -48 -35 -96q-19 -52 -56 -52q-41 0 -41 49q0 110 66 180.5t176 70.5q71 0 122 -54q12 -13 70 -102q36 -54 70 -54q38 0 64 73.5t65 73.5q41 0 41 -58zM841 208
q0 -64 -101 -134q-95 -66 -162 -66q-102 0 -102 94q0 92 106.5 277.5t106.5 273.5q0 53 -28 53q-98 0 -331 -381q-29 -44 -83 -136q-17 -40 -57 -119q-41 -70 -89 -70q-86 0 -86 97q0 62 50 166q73 151 77 163l26 73q35 98 35 137q0 81 -29 81q-23 0 -66 -42t-64 -42
q-29 0 -29 24q0 60 101 134q96 70 159 70q60 0 60 -52q0 -49 -29 -142t-29 -142q0 -50 25 -50q30 0 106 100q109 145 150 186q98 100 181 100q47 0 74.5 -35.5t27.5 -83.5q0 -92 -100 -297q-102 -209 -102 -256q0 -39 38 -39q31 0 77.5 39.5t61.5 39.5q25 0 25 -21z" />
    <glyph glyph-name="ograve" unicode="&#xf2;" horiz-adv-x="782" 
d="M607 1024q0 -35 -30 -35q-36 0 -67 83l-66 182q-40 104 -85 173q-63 97 -63 130q0 49 75 49q59 0 89 -79q8 -44 26 -133q9 -41 69 -190q52 -130 52 -180zM728 590q0 -196 -131 -384q-144 -206 -331 -206q-121 0 -185 84q-58 76 -58 200q0 206 125 382q138 195 336 195
q244 0 244 -271zM591 592q0 148 -118 148q-123 0 -228 -179q-94 -161 -94 -294q0 -130 129 -130q133 0 228 166q83 145 83 289z" />
    <glyph glyph-name="oacute" unicode="&#xf3;" horiz-adv-x="782" 
d="M757 1557q0 -33 -63 -130q-45 -69 -85 -173l-66 -182q-31 -83 -67 -83q-30 0 -30 35q0 50 52 180q60 149 69 190q5 45 26 133q30 79 89 79q75 0 75 -49zM728 590q0 -196 -131 -384q-144 -206 -331 -206q-121 0 -185 84q-58 76 -58 200q0 206 125 382q138 195 336 195
q244 0 244 -271zM591 592q0 148 -118 148q-123 0 -228 -179q-94 -161 -94 -294q0 -130 129 -130q133 0 228 166q83 145 83 289z" />
    <glyph glyph-name="ocircumflex" unicode="&#xf4;" horiz-adv-x="782" 
d="M787 1105q0 -36 -32 -36q-35 0 -60 69q-94 257 -112 257q-29 0 -213 -272q-37 -54 -65 -54q-34 0 -34 30q0 38 70 137q87 122 96 142q94 198 156 198q66 0 99 -174q7 -37 54 -152q41 -100 41 -145zM728 590q0 -196 -131 -384q-144 -206 -331 -206q-121 0 -185 84
q-58 76 -58 200q0 206 125 382q138 195 336 195q244 0 244 -271zM591 592q0 148 -118 148q-123 0 -228 -179q-94 -161 -94 -294q0 -130 129 -130q133 0 228 166q83 145 83 289z" />
    <glyph glyph-name="otilde" unicode="&#xf5;" horiz-adv-x="782" 
d="M899 1348q0 -74 -44 -125q-45 -54 -118 -54q-77 0 -124 52q-33 48 -67 96q-41 52 -106 52q-55 0 -83 -52q-17 -48 -35 -96q-19 -52 -56 -52q-41 0 -41 49q0 110 66 180.5t176 70.5q71 0 122 -54q12 -13 70 -102q36 -54 70 -54q38 0 64 73.5t65 73.5q41 0 41 -58zM728 590
q0 -196 -131 -384q-144 -206 -331 -206q-121 0 -185 84q-58 76 -58 200q0 206 125 382q138 195 336 195q244 0 244 -271zM591 592q0 148 -118 148q-123 0 -228 -179q-94 -161 -94 -294q0 -130 129 -130q133 0 228 166q83 145 83 289z" />
    <glyph glyph-name="odieresis" unicode="&#xf6;" horiz-adv-x="782" 
d="M802 1201q0 -47 -28 -81t-74 -34q-79 0 -79 84q0 46 29.5 81t74.5 35q77 0 77 -85zM432 1221q0 -47 -28 -81t-74 -34q-79 0 -79 84q0 46 29.5 81t74.5 35q77 0 77 -85zM728 590q0 -196 -131 -384q-144 -206 -331 -206q-121 0 -185 84q-58 76 -58 200q0 206 125 382
q138 195 336 195q244 0 244 -271zM591 592q0 148 -118 148q-123 0 -228 -179q-94 -161 -94 -294q0 -130 129 -130q133 0 228 166q83 145 83 289z" />
    <glyph glyph-name="divide" unicode="&#xf7;" horiz-adv-x="1044" 
d="M640 788q0 -46 -32.5 -78.5t-78.5 -32.5q-44 0 -77.5 33t-33.5 78t33 78t78 33q47 0 79 -32.5t32 -78.5zM965 400q0 -29 -30 -29h-812q-29 0 -29 29v70q0 29 29 29h812q30 0 30 -29v-70zM640 82q0 -46 -32.5 -78.5t-78.5 -32.5q-44 0 -77.5 33t-33.5 78t33 78t78 33
q47 0 79 -32.5t32 -78.5z" />
    <glyph glyph-name="oslash" unicode="&#xf8;" horiz-adv-x="782" 
d="M808 889q0 -17 -20 -40q-31 -34 -92 -101q32 -64 32 -158q0 -196 -131 -384q-144 -206 -331 -206q-81 0 -137 38q-16 -23 -46 -69q-32 -50 -57 -50q-16 0 -38 13t-22 28q0 38 91 162q-34 67 -34 162q0 206 125 382q138 195 336 195q83 0 138 -32q81 105 128 105
q30 0 58 -45zM537 723q-27 17 -64 17q-123 0 -228 -179q-94 -161 -94 -294q0 -16 1 -25zM591 592q0 20 -2 35q-229 -265 -381 -475q30 -15 72 -15q133 0 228 166q83 145 83 289z" />
    <glyph glyph-name="ugrave" unicode="&#xf9;" horiz-adv-x="911" 
d="M667 1024q0 -35 -30 -35q-36 0 -67 83l-66 182q-40 104 -85 173q-63 97 -63 130q0 49 75 49q59 0 89 -79q8 -44 26 -133q9 -41 69 -190q52 -130 52 -180zM840 763q0 -60 -50 -166l-78 -162q-22 -54 -39 -105q-28 -83 -28 -126q0 -59 27 -59q24 0 66.5 41.5t64.5 41.5
q30 0 30 -24q0 -60 -102 -132q-96 -68 -160 -68q-54 0 -54 54q0 50 32 145t32 145q0 39 -21 39q-31 0 -109 -100q-112 -144 -156 -187q-102 -100 -190 -100q-43 0 -69 40q-22 34 -22 80q0 107 98.5 292t98.5 261q0 47 -37 47q-31 0 -78 -39.5t-61 -39.5q-23 0 -23 20
q0 64 99 134q94 66 161 66q41 0 67.5 -31t26.5 -72q0 -97 -102 -275.5t-102 -271.5q0 -57 27 -57q80 0 235 219q110 154 185 300q18 40 59 118q41 70 92 70q37 0 60 -31q20 -29 20 -67z" />
    <glyph glyph-name="uacute" unicode="&#xfa;" horiz-adv-x="911" 
d="M827 1557q0 -33 -63 -130q-45 -69 -85 -173l-66 -182q-31 -83 -67 -83q-30 0 -30 35q0 50 52 180q60 149 69 190q5 45 26 133q30 79 89 79q75 0 75 -49zM840 763q0 -60 -50 -166l-78 -162q-22 -54 -39 -105q-28 -83 -28 -126q0 -59 27 -59q24 0 66.5 41.5t64.5 41.5
q30 0 30 -24q0 -60 -102 -132q-96 -68 -160 -68q-54 0 -54 54q0 50 32 145t32 145q0 39 -21 39q-31 0 -109 -100q-112 -144 -156 -187q-102 -100 -190 -100q-43 0 -69 40q-22 34 -22 80q0 107 98.5 292t98.5 261q0 47 -37 47q-31 0 -78 -39.5t-61 -39.5q-23 0 -23 20
q0 64 99 134q94 66 161 66q41 0 67.5 -31t26.5 -72q0 -97 -102 -275.5t-102 -271.5q0 -57 27 -57q80 0 235 219q110 154 185 300q18 40 59 118q41 70 92 70q37 0 60 -31q20 -29 20 -67z" />
    <glyph glyph-name="ucircumflex" unicode="&#xfb;" horiz-adv-x="911" 
d="M847 1105q0 -36 -32 -36q-35 0 -60 69q-94 257 -112 257q-29 0 -213 -272q-37 -54 -65 -54q-34 0 -34 30q0 38 70 137q87 122 96 142q94 198 156 198q66 0 99 -174q7 -37 54 -152q41 -100 41 -145zM840 763q0 -60 -50 -166l-78 -162q-22 -54 -39 -105q-28 -83 -28 -126
q0 -59 27 -59q24 0 66.5 41.5t64.5 41.5q30 0 30 -24q0 -60 -102 -132q-96 -68 -160 -68q-54 0 -54 54q0 50 32 145t32 145q0 39 -21 39q-31 0 -109 -100q-112 -144 -156 -187q-102 -100 -190 -100q-43 0 -69 40q-22 34 -22 80q0 107 98.5 292t98.5 261q0 47 -37 47
q-31 0 -78 -39.5t-61 -39.5q-23 0 -23 20q0 64 99 134q94 66 161 66q41 0 67.5 -31t26.5 -72q0 -97 -102 -275.5t-102 -271.5q0 -57 27 -57q80 0 235 219q110 154 185 300q18 40 59 118q41 70 92 70q37 0 60 -31q20 -29 20 -67z" />
    <glyph glyph-name="udieresis" unicode="&#xfc;" horiz-adv-x="911" 
d="M892 1201q0 -47 -28 -81t-74 -34q-79 0 -79 84q0 46 29.5 81t74.5 35q77 0 77 -85zM522 1221q0 -47 -28 -81t-74 -34q-79 0 -79 84q0 46 29.5 81t74.5 35q77 0 77 -85zM840 763q0 -60 -50 -166l-78 -162q-22 -54 -39 -105q-28 -83 -28 -126q0 -59 27 -59q24 0 66.5 41.5
t64.5 41.5q30 0 30 -24q0 -60 -102 -132q-96 -68 -160 -68q-54 0 -54 54q0 50 32 145t32 145q0 39 -21 39q-31 0 -109 -100q-112 -144 -156 -187q-102 -100 -190 -100q-43 0 -69 40q-22 34 -22 80q0 107 98.5 292t98.5 261q0 47 -37 47q-31 0 -78 -39.5t-61 -39.5
q-23 0 -23 20q0 64 99 134q94 66 161 66q41 0 67.5 -31t26.5 -72q0 -97 -102 -275.5t-102 -271.5q0 -57 27 -57q80 0 235 219q110 154 185 300q18 40 59 118q41 70 92 70q37 0 60 -31q20 -29 20 -67z" />
    <glyph glyph-name="yacute" unicode="&#xfd;" horiz-adv-x="799" 
d="M727 1557q0 -33 -63 -130q-45 -69 -85 -173l-66 -182q-31 -83 -67 -83q-30 0 -30 35q0 50 52 180q60 149 69 190q5 45 26 133q30 79 89 79q75 0 75 -49zM698 724q0 -278 -165 -572q-156 -277 -390 -456q-229 -175 -530 -175q-69 0 -138 36q-83 42 -83 104q0 34 48 34h6
q85 -62 102 -71q64 -38 116 -38q294 0 530 385q88 144 88 305q0 77 -20 192q-23 134 -54 178q-1 1 -62 64q-31 31 -31 85q0 66 87 66q59 0 97 -67q20 -36 57 -290q34 -225 78 -243q66 9 113 190q36 143 36 244q0 19 -5 57.5t-5 57.5q0 51 52 51q73 0 73 -137z" />
    <glyph glyph-name="thorn" unicode="&#xfe;" horiz-adv-x="889" 
d="M840 634q0 -68 -45 -220q-28 -96 -104 -178q-78 -86 -170 -113q-34 -10 -114.5 -10t-118.5 -39q-26 -27 -59 -113q-113 -293 -113 -422q0 -49 53 -73q1 0 98 -27q53 -14 53 -43q0 -41 -54 -41q-35 0 -101.5 16.5t-101.5 16.5q-25 0 -75.5 -2.5t-75.5 -2.5q-95 0 -95 42
q0 11 52 30q59 22 82 77q24 59 104 343q80 297 245 890q79 277 79 386q0 76 -50.5 113.5t-50.5 55.5q0 41 68 66q54 21 104 21q124 0 124 -113q0 -33 -45 -171q-9 -28 -50 -183q-12 -46 -12 -64q0 -38 60 -38q24 0 69 11.5t69 11.5q80 0 131 -76q44 -67 44 -151zM705 634
q0 65 -44 107t-109 42q-74 0 -124 -82q-28 -46 -69 -201t-41 -211q0 -87 101 -87q110 0 203 165q83 146 83 267z" />
    <glyph glyph-name="ydieresis" unicode="&#xff;" horiz-adv-x="799" 
d="M732 1201q0 -47 -28 -81t-74 -34q-79 0 -79 84q0 46 29.5 81t74.5 35q77 0 77 -85zM362 1221q0 -47 -28 -81t-74 -34q-79 0 -79 84q0 46 29.5 81t74.5 35q77 0 77 -85zM698 724q0 -278 -165 -572q-156 -277 -390 -456q-229 -175 -530 -175q-69 0 -138 36q-83 42 -83 104
q0 34 48 34h6q85 -62 102 -71q64 -38 116 -38q294 0 530 385q88 144 88 305q0 77 -20 192q-23 134 -54 178q-1 1 -62 64q-31 31 -31 85q0 66 87 66q59 0 97 -67q20 -36 57 -290q34 -225 78 -243q66 9 113 190q36 143 36 244q0 19 -5 57.5t-5 57.5q0 51 52 51q73 0 73 -137z
" />
    <glyph glyph-name="Iogonek" unicode="&#x12e;" horiz-adv-x="763" 
d="M828 -219q0 -8 -12 -19q-46 -41 -120.5 -70.5t-134.5 -29.5q-66 0 -114 39.5t-48 104.5q0 102 127 212h65q-70 -87 -70 -162q0 -112 131 -112q40 0 99.5 27.5t60.5 27.5q16 0 16 -18zM614 1235q0 -34 -47 -44q-51 -10 -82 -57q-30 -43 -30 -97v-736q0 -173 98 -205
q44 -14 44 -52q0 -54 -55 -54q-29 0 -87 8.5t-86 8.5q-29 0 -87 -8.5t-87 -8.5q-43 0 -43 46q0 18 72 55q55 28 73 96q10 41 10 132v716q0 121 -78 157q-69 32 -69 54q0 44 64 44q30 0 59 -4q86 -9 99 -9q32 0 95 6.5t95 6.5q42 0 42 -55z" />
    <glyph glyph-name="obreve" unicode="&#x14f;" horiz-adv-x="782" 
d="M899 1424q0 -122 -140 -187q-109 -51 -247 -51q-93 0 -173 60q-87 64 -87 154q0 73 68 73q21 0 74 -91.5t118 -91.5q164 0 220 66q4 5 38 81q23 52 62 52q67 0 67 -65zM728 590q0 -196 -131 -384q-144 -206 -331 -206q-121 0 -185 84q-58 76 -58 200q0 206 125 382
q138 195 336 195q244 0 244 -271zM591 592q0 148 -118 148q-123 0 -228 -179q-94 -161 -94 -294q0 -130 129 -130q133 0 228 166q83 145 83 289z" />
    <glyph glyph-name="Odblacute" unicode="&#x150;" 
d="M1147 1824q0 -30 -52 -107q-39 -58 -124 -289q-25 -69 -60 -69q-32 0 -32 36q0 44 42 146q46 114 53 151q2 37 17 108q24 66 82 66q74 0 74 -42zM837 1824q0 -30 -52 -107q-39 -58 -124 -289q-25 -69 -60 -69q-32 0 -32 36q0 44 42 146q46 114 53 151q2 37 17 108
q24 66 82 66q74 0 74 -42zM1446 663q0 -286 -194 -492q-198 -211 -482 -211q-279 0 -476 187q-201 191 -201 468q0 291 202.5 493.5t493.5 202.5q267 0 462 -190.5t195 -457.5zM1260 596q0 249 -126 430q-140 201 -371 201t-361 -183q-113 -161 -113 -392q0 -139 50 -271
q54 -144 149 -230q116 -105 276 -105q229 0 367 163q129 153 129 387z" />
    <glyph glyph-name="OE" unicode="&#x152;" horiz-adv-x="2009" 
d="M1857 249q0 -20 -2 -48q-10 -123 -16 -141q-23 -72 -107 -72q-62 0 -187.5 9t-188.5 9q-76 0 -197 -10q-17 -2 -194 -22q-118 -14 -195 -14q-279 0 -476 187q-201 191 -201 468q0 291 202.5 493.5t493.5 202.5q95 0 285.5 -16.5t285.5 -16.5q88 0 166 4q235 13 239 13
q37 0 37 -48q0 -16 -1 -48t-1 -48q0 -15 4 -46t4 -47q0 -58 -31 -58q-16 0 -40 50q-39 81 -93 111q-59 33 -147 33q-118 0 -191 -41q-46 -25 -46 -254q0 -147 31 -182q37 -41 190 -41q12 0 36 -1t36 -1q76 0 115 33q16 14 43 61q19 34 45 34q21 0 21 -29q0 -23 -8.5 -69.5
t-8.5 -69.5q0 -22 2.5 -66.5t2.5 -66.5q0 -44 -19 -44q-29 0 -55 46q-34 62 -42 69q-44 41 -155 41q-162 0 -202 -16.5t-40 -70.5l-3 -191q0 -158 37 -198q46 -49 245 -49q11 0 33 -2t33 -2q67 0 103 25q33 23 61 85q50 112 78 112q18 0 18 -57zM1118 637q0 207 -9 388
q-5 89 -135 150q-109 52 -211 52q-229 0 -358 -179q-116 -159 -116 -396q0 -233 119 -407q134 -199 356 -199q191 0 287 89q31 29 46 154q6 87 13 173q8 106 8 175z" />
    <glyph glyph-name="oe" unicode="&#x153;" horiz-adv-x="1197" 
d="M1174 682q0 -102 -112 -181q-102 -72 -208 -72q-17 0 -49 6t-49 6q-99 0 -99 -154q0 -150 143 -150q80 0 172.5 69t85.5 69q61 0 61 -31q0 -12 -11 -32q-51 -96 -141 -154t-196 -58q-159 0 -217 151q-131 -151 -288 -151q-120 0 -185 84q-58 76 -58 200q0 206 125 382
q138 195 336 195q158 0 214 -117q120 117 281 117q76 0 135.5 -52t59.5 -127zM1033 638q0 42 -31.5 72t-73.5 30q-54 0 -107 -58t-53 -113q0 -24 28 -43q25 -16 51 -16q55 0 117 36q69 41 69 92zM591 593q0 147 -118 147q-123 0 -228 -179q-94 -161 -94 -294
q0 -130 129 -130q149 0 247 203q5 132 64 253z" />
    <glyph glyph-name="Scaron" unicode="&#x160;" horiz-adv-x="1030" 
d="M846 1856q0 -38 -70 -137q-87 -122 -96 -142q-94 -198 -156 -198q-66 0 -99 174q-7 37 -54 152q-41 100 -41 145q0 36 32 36q35 0 60 -69q94 -257 112 -257q29 0 213 272q37 54 65 54q34 0 34 -30zM950 323q0 -176 -153 -272q-129 -81 -316 -81q-65 0 -140 15
q-82 17 -152 48q-103 48 -103 104v97q0 49 43 49q31 0 39 -23q5 -24 9 -48q22 -80 124 -122q82 -34 180 -34q116 0 204 47q108 58 108 164q0 127 -185 222q-171 82 -343 164q-185 113 -185 282q0 171 140 272q125 91 303 91q83 0 206 -33q155 -41 155 -98v-118
q0 -49 -43 -49q-31 0 -37.5 23.5t-10.5 47.5q-7 24 -27 49q-77 94 -243 94q-104 0 -190 -56q-98 -64 -98 -162q0 -139 185 -235q172 -79 345 -159q185 -109 185 -279z" />
    <glyph glyph-name="scaron" unicode="&#x161;" horiz-adv-x="664" 
d="M756 1546q0 -38 -70 -137q-87 -122 -96 -142q-94 -198 -156 -198q-66 0 -99 174q-7 37 -54 152q-41 100 -41 145q0 36 32 36q35 0 60 -69q94 -257 112 -257q29 0 213 272q37 54 65 54q34 0 34 -30zM562 710q0 -93 -32 -93q-16 0 -79 57.5t-110 57.5q-50 0 -85 -40
t-35 -91q0 -43 75 -111q138 -123 141 -126q75 -81 75 -156q0 -93 -75 -153q-69 -55 -165 -55q-79 0 -151 32q-90 41 -90 110q0 106 34 106q1 0 6 -1q111 -102 191 -102q94 0 94 83q0 34 -55 89q-86 85 -104 108q-55 73 -55 152q0 110 61 192q67 92 173 92q39 0 96 -23
q63 -26 79 -56q11 -21 11 -72z" />
    <glyph glyph-name="Ydieresis" unicode="&#x178;" horiz-adv-x="1526" 
d="M1058 1616q0 -46 -29.5 -78t-75.5 -32q-86 0 -86 88q0 46 30 79t75 33q86 0 86 -90zM658 1626q0 -46 -29.5 -78t-75.5 -32q-86 0 -86 88q0 46 30 79t75 33q86 0 86 -90zM1411 1226q0 -61 -138 -61q-56 0 -194 -174q-59 -75 -105 -128.5t-132 -164.5q-18 -25 -19 -41
q-5 -119 -5 -358q0 -20 -3 -59t-3 -58q0 -62 81 -95t81 -58q0 -42 -74 -42q-31 0 -91.5 7t-90.5 7q-25 0 -73 -7.5t-73 -7.5q-123 0 -123 50q0 24 71 51q86 32 109 57q14 14 18 39t4 114q0 48 3.5 144.5t3.5 145.5q0 37 -27 75q-106 147 -174 239q-43 63 -86 125
q-56 81 -93 114q-41 36 -76 36q-98 0 -98 63q0 50 72 50q27 0 79.5 -4.5t78.5 -4.5q31 0 94 4.5t95 4.5q72 0 72 -42q0 -32 -44.5 -52.5t-44.5 -53.5q0 -22 25 -58q36 -49 106 -148q31 -50 100 -141q25 -27 38 -27q11 0 30 21q97 110 215 258q34 42 34 85q0 30 -89 52
t-89 56q0 50 87 50q30 0 90 -5.5t90 -5.5t91.5 5.5t91.5 5.5q85 0 85 -63z" />
    <glyph glyph-name="zacute" unicode="&#x17a;" horiz-adv-x="1225" 
d="M1007 1557q0 -33 -63 -130q-45 -69 -85 -173l-66 -182q-31 -83 -67 -83q-30 0 -30 35q0 50 52 180q60 149 69 190q5 45 26 133q30 79 89 79q75 0 75 -49zM1304 -428q0 -75 -98 -148q-93 -69 -171 -69q-127 0 -215 78q-68 61 -124 184q-43 107 -86 215q-41 101 -144 184
q-110 88 -212 88q-48 0 -120 -56t-102 -56q-48 0 -48 29q0 44 162 160q107 78 210 138q85 50 230 149q188 129 188 155q0 68 -128 99q-85 20 -189 20q-132 0 -177 -49q-12 -13 -36 -91q-15 -49 -76 -49q-46 0 -46 40q0 38 40 104q47 76 134 121q84 43 177 43
q77 0 224.5 -42.5t224.5 -42.5q71 0 186.5 58.5t124.5 58.5q28 0 28 -25q0 -43 -98 -116l-396 -286q-324 -241 -324 -284q0 -5 96 -71q189 -130 255 -315q57 -160 88 -208q69 -107 184 -107q59 0 126 63t72 63q40 0 40 -35z" />
    <glyph glyph-name="Zcaron" unicode="&#x17d;" horiz-adv-x="1360" 
d="M1056 1856q0 -38 -70 -137q-87 -122 -96 -142q-94 -198 -156 -198q-66 0 -99 174q-7 37 -54 152q-41 100 -41 145q0 36 32 36q35 0 60 -69q94 -257 112 -257q29 0 213 272q37 54 65 54q34 0 34 -30zM1257 236q0 -123 -14 -175q-18 -67 -66 -67q-96 0 -175 2
q-274 7 -351 7q-125 0 -222 -3l-300 -10q-14 0 -29.5 11.5t-15.5 24.5q0 19 28 57q20 29 75 89l106 117q50 57 266 346l249 334q31 41 90 127q31 52 31 67q0 25 -54 25l-213 1q-43 1 -118 -2q-86 -4 -118 -4q-101 -1 -159 -59q-27 -27 -69 -110q-31 -59 -62 -59
q-21 0 -21 33v16q0 95 20 174q30 116 91 116q68 0 296 -11q114 -5 204 -5q105 0 197 3l291 10q10 0 22 -11t12 -21q0 -44 -65 -106q-35 -32 -105 -98q-41 -39 -176 -222l-115 -156q-62 -84 -150 -197l-142 -182q-104 -138 -104 -170q0 -34 46 -34q81 0 267 -4l244 -3
q120 0 174 74q26 36 53 137q19 74 54 74q28 0 28 -136z" />
    <glyph glyph-name="zcaron" unicode="&#x17e;" horiz-adv-x="1225" 
d="M1046 1546q0 -38 -70 -137q-87 -122 -96 -142q-94 -198 -156 -198q-66 0 -99 174q-7 37 -54 152q-41 100 -41 145q0 36 32 36q35 0 60 -69q94 -257 112 -257q29 0 213 272q37 54 65 54q34 0 34 -30zM1304 -428q0 -75 -98 -148q-93 -69 -171 -69q-127 0 -215 78
q-68 61 -124 184q-43 107 -86 215q-41 101 -144 184q-110 88 -212 88q-48 0 -120 -56t-102 -56q-48 0 -48 29q0 44 162 160q107 78 210 138q85 50 230 149q188 129 188 155q0 68 -128 99q-85 20 -189 20q-132 0 -177 -49q-12 -13 -36 -91q-15 -49 -76 -49q-46 0 -46 40
q0 38 40 104q47 76 134 121q84 43 177 43q77 0 224.5 -42.5t224.5 -42.5q71 0 186.5 58.5t124.5 58.5q28 0 28 -25q0 -43 -98 -116l-396 -286q-324 -241 -324 -284q0 -5 96 -71q189 -130 255 -315q57 -160 88 -208q69 -107 184 -107q59 0 126 63t72 63q40 0 40 -35z" />
    <glyph glyph-name="florin" unicode="&#x192;" horiz-adv-x="753" 
d="M975 1569q0 -23 -18 -55q-20 -36 -41 -36q-19 0 -55.5 5.5t-55.5 5.5q-89 0 -140 -81q-17 -27 -68 -201t-51 -205q0 -12 22 -23q19 -10 33 -10q12 0 35.5 8t35.5 8q44 0 44 -55q0 -78 -51 -92q-54 -7 -109 -15q-69 -22 -102 -116q-3 -8 -27 -115q-9 -39 -124 -453
l-89 -320q-15 -55 -60 -107q-51 -60 -101 -60q-71 0 -130 31q-72 38 -72 102q0 65 70 65q12 0 36 -5t36 -5q50 0 80 43q23 33 134.5 421t111.5 434q0 33 -29 33q-16 0 -46 -5.5t-46 -5.5q-49 0 -49 43q0 67 104 101q117 39 133 74q4 9 26 100l27 113q56 235 116 319
q95 132 299 132q36 0 75 -19q46 -22 46 -54z" />
    <glyph glyph-name="turnedcomma" unicode="&#x2bb;" horiz-adv-x="476" 
d="M476 1447q0 -19 -14.5 -22.5t-40.5 -10.5q-48 -16 -87 -47q-50 -39 -50 -79q0 -58 71 -71q37 -5 74 -11q38 -12 38 -59q0 -91 -113 -91q-73 0 -120 58q-44 54 -44 129q0 166 215 224q33 9 50 9q21 0 21 -29z" />
    <glyph glyph-name="etadasiavaria" unicode="&#x1f23;" horiz-adv-x="853" 
d="M778 962q0 -62 -30 -62t-73 109q-28 71 -75 227q-19 69 -66 202q-9 21 -53 97q-34 59 -34 78q0 42 45 42q88 0 138 -113q28 -61 52 -190q16 -82 41 -178q55 -207 55 -212zM427 1048q0 -21 -32 -35q-26 -11 -51 -11q-64 0 -123 61t-59 125q0 61 53.5 119t113.5 58
q35 0 61.5 -21.5t26.5 -56.5q0 -34 -61.5 -68t-61.5 -51q0 -60 66.5 -77.5t66.5 -42.5zM776 724q0 -142 -22 -236q-17 -62 -47 -186q-24 -120 -24 -374q0 -149 -123 -149q-66 0 -66 58q0 50 38 146q47 121 54 149q33 138 33 373q0 110 -50 110q-54 0 -148 -163
q-96 -166 -96 -269q0 -74 -28 -124q-33 -59 -87 -59q-74 0 -74 117q0 61 53 189t53 199q0 66 -53 107.5t-53 61.5q0 64 42 123q47 64 108 64q69 0 69 -106q0 -16 -3.5 -48.5t-3.5 -48.5q0 -45 23 -45q35 0 92 64q94 107 109 120q71 64 141 64q33 0 51 -55q12 -39 12 -82z
" />
    <glyph glyph-name="etapsilioxia" unicode="&#x1f24;" horiz-adv-x="853" 
d="M930 1619q0 -61 -45 -131q-26 -38 -76 -116q-24 -40 -70 -166q-29 -78 -54 -159q-9 -33 -30 -95q-18 -43 -61 -43q-24 0 -24 31q0 17 52 170q58 173 65 199q19 80 63 239q34 107 102 107q78 0 78 -36zM545 1225q0 -72 -78 -161t-130 -89q-37 0 -37 35q0 15 62 61t62 109
q0 26 -55.5 49.5t-55.5 76.5q0 66 90 66q60 0 101 -43.5t41 -103.5zM776 724q0 -142 -22 -236q-17 -62 -47 -186q-24 -120 -24 -374q0 -149 -123 -149q-66 0 -66 58q0 50 38 146q47 121 54 149q33 138 33 373q0 110 -50 110q-54 0 -148 -163q-96 -166 -96 -269
q0 -74 -28 -124q-33 -59 -87 -59q-74 0 -74 117q0 61 53 189t53 199q0 66 -53 107.5t-53 61.5q0 64 42 123q47 64 108 64q69 0 69 -106q0 -16 -3.5 -48.5t-3.5 -48.5q0 -45 23 -45q35 0 92 64q94 107 109 120q71 64 141 64q33 0 51 -55q12 -39 12 -82z" />
    <glyph glyph-name="iotadasiaoxia" unicode="&#x1f35;" horiz-adv-x="471" 
d="M709 1619q0 -62 -44 -131q-27 -38 -77 -116q-49 -83 -124 -325q-9 -33 -30 -95q-18 -43 -61 -43q-24 0 -24 31q0 17 52 170q58 173 65 199q19 80 63 239q34 107 102 107q78 0 78 -36zM276 1280q0 -56 -83 -72t-83 -57q0 -42 46 -70.5t46 -38.5q0 -44 -50 -44
q-72 0 -119 67q-42 60 -42 135q0 68 59 115q55 44 125 44q38 0 68 -20q33 -23 33 -59zM380 250q0 -51 -83.5 -150.5t-132.5 -99.5q-77 0 -77 85q0 37 18 144q42 247 94 507q12 58 34.5 91.5t46.5 33.5q76 0 76 -66q0 -68 -48.5 -191t-48.5 -188q0 -105 55 -105q5 0 14 1
t14 1q38 0 38 -63z" />
    <glyph glyph-name="iotapsiliperispomeni" unicode="&#x1f36;" horiz-adv-x="471" 
d="M746 1497q0 -68 -40 -115q-42 -51 -108 -51q-82 0 -138 56q-40 51 -80 103q-44 56 -98 56q-63 0 -90 -107.5t-73 -107.5q-47 0 -47 72q0 102 66.5 177t168.5 75q76 0 132 -61q20 -22 76 -114q37 -61 68 -61q36 0 51.5 81t62.5 81q49 0 49 -84zM483 1206q0 -84 -60 -161
q-63 -81 -145 -81q-38 0 -38 28q0 14 55.5 46t55.5 84q0 50 -61.5 83t-61.5 62q0 79 86 79q52 0 110.5 -45t58.5 -95zM380 250q0 -51 -83.5 -150.5t-132.5 -99.5q-77 0 -77 85q0 37 18 144q42 247 94 507q12 58 34.5 91.5t46.5 33.5q76 0 76 -66q0 -68 -48.5 -191
t-48.5 -188q0 -105 55 -105q5 0 14 1t14 1q38 0 38 -63z" />
    <glyph glyph-name="iotadasiaperispomeni" unicode="&#x1f37;" horiz-adv-x="471" 
d="M746 1497q0 -68 -40 -115q-42 -51 -108 -51q-82 0 -138 56q-40 51 -80 103q-44 56 -98 56q-63 0 -90 -107.5t-73 -107.5q-47 0 -47 72q0 102 66.5 177t168.5 75q76 0 132 -61q20 -22 76 -114q37 -61 68 -61q36 0 51.5 81t62.5 81q49 0 49 -84zM477 1268q0 -56 -83 -72
t-83 -57q0 -43 46 -71t46 -38q0 -44 -51 -44q-72 0 -118 66q-42 60 -42 135q0 68 58 115q55 45 125 45q36 0 67 -21q35 -23 35 -58zM380 250q0 -51 -83.5 -150.5t-132.5 -99.5q-77 0 -77 85q0 37 18 144q42 247 94 507q12 58 34.5 91.5t46.5 33.5q76 0 76 -66
q0 -68 -48.5 -191t-48.5 -188q0 -105 55 -105q5 0 14 1t14 1q38 0 38 -63z" />
    <glyph glyph-name="Iotapsili" unicode="&#x1f38;" horiz-adv-x="1035" 
d="M254 1222q0 -85 -59 -160q-64 -81 -146 -81q-38 0 -38 27q0 14 55.5 46t55.5 84q0 50 -61 82.5t-61 62.5q0 79 85 79q52 0 110.5 -45t58.5 -95zM886 1235q0 -34 -47 -44q-51 -10 -82 -57q-30 -43 -30 -97v-736q0 -173 98 -205q44 -14 44 -52q0 -54 -55 -54q-29 0 -87 8.5
t-86 8.5q-29 0 -87 -8.5t-87 -8.5q-43 0 -43 46q0 18 72 55q55 28 73 96q10 41 10 132v716q0 121 -78 157q-69 32 -69 54q0 44 64 44q30 0 59 -4q86 -9 99 -9q32 0 95 6.5t95 6.5q42 0 42 -55z" />
    <glyph glyph-name="Iotadasia" unicode="&#x1f39;" horiz-adv-x="1051" 
d="M286 1281q0 -56 -83 -72t-83 -57q0 -43 46 -71t46 -38q0 -44 -51 -44q-71 0 -119 66q-42 60 -42 135q0 67 60 115q56 45 124 45q36 0 67 -21q35 -23 35 -58zM902 1235q0 -34 -47 -44q-51 -10 -82 -57q-30 -43 -30 -97v-736q0 -173 98 -205q44 -14 44 -52q0 -54 -55 -54
q-29 0 -87 8.5t-86 8.5q-29 0 -87 -8.5t-87 -8.5q-43 0 -43 46q0 18 72 55q55 28 73 96q10 41 10 132v716q0 121 -78 157q-69 32 -69 54q0 44 64 44q30 0 59 -4q86 -9 99 -9q32 0 95 6.5t95 6.5q42 0 42 -55z" />
    <glyph glyph-name="Iotapsilivaria" unicode="&#x1f3a;" horiz-adv-x="1490" 
d="M604 962q0 -62 -29 -62q-30 0 -73 109q-25 64 -70 217q-42 142 -72 212q-9 21 -53 97q-34 59 -34 78q0 42 46 42q132 0 189 -303q16 -82 41 -178q55 -207 55 -212zM275 1199q0 -98 -37 -169q-33 -63 -63 -63q-31 0 -31 43q0 9 22 53t22 78q0 27 -13 52q-16 29 -41 29
q-11 0 -32.5 -5t-31.5 -5q-28 0 -49 25t-21 53q0 36 44 62q39 22 78 22q72 0 114 -52q39 -49 39 -123zM1341 1235q0 -34 -47 -44q-51 -10 -82 -57q-30 -43 -30 -97v-736q0 -173 98 -205q44 -14 44 -52q0 -54 -55 -54q-29 0 -87 8.5t-86 8.5q-29 0 -87 -8.5t-87 -8.5
q-43 0 -43 46q0 18 72 55q55 28 73 96q10 41 10 132v716q0 121 -78 157q-69 32 -69 54q0 44 64 44q30 0 59 -4q86 -9 99 -9q32 0 95 6.5t95 6.5q42 0 42 -55z" />
    <glyph glyph-name="endash" unicode="&#x2013;" horiz-adv-x="1024" 
d="M958 423q0 -28 -28 -28h-796q-28 0 -28 30v68q0 28 28 28h796q28 0 28 -28v-70z" />
    <glyph glyph-name="emdash" unicode="&#x2014;" horiz-adv-x="2048" 
d="M1982 423q0 -28 -28 -28h-1820q-28 0 -28 30v68q0 28 28 28h1820q28 0 28 -28v-70z" />
    <glyph glyph-name="quoteleft" unicode="&#x2018;" horiz-adv-x="462" 
d="M618 1429q0 -44 -27 -56q-5 -3 -12 -3q-120 -8 -174 -76q-20 -25 -20 -56q0 -52 60.5 -105t60.5 -94q0 -38 -27.5 -62.5t-66.5 -24.5q-74 0 -119 68q-40 60 -40 137q0 137 96 215q88 71 228 71q41 0 41 -14z" />
    <glyph glyph-name="quoteright" unicode="&#x2019;" horiz-adv-x="462" 
d="M599 1238q0 -137 -96 -215q-88 -71 -228 -71q-42 0 -42 14q0 41 23 55q7 4 17 5q118 8 172 75q21 26 21 57q0 51 -60.5 104t-60.5 94q0 38 28 62.5t66 24.5q75 0 120 -67q40 -59 40 -138z" />
    <glyph glyph-name="quotesinglbase" unicode="&#x201a;" horiz-adv-x="462" 
d="M366 -45q0 -137 -96 -215q-88 -71 -228 -71q-42 0 -42 14q0 41 23 55q7 4 17 5q118 8 172 75q21 26 21 57q0 51 -60.5 104t-60.5 94q0 38 28 62.5t66 24.5q75 0 120 -67q40 -59 40 -138z" />
    <glyph glyph-name="quotedblleft" unicode="&#x201c;" horiz-adv-x="822" 
d="M978 1429q0 -43 -27 -56q-5 -3 -12 -3q-120 -8 -174 -76q-20 -25 -20 -56q0 -52 60.5 -105t60.5 -94q0 -38 -27.5 -62.5t-66.5 -24.5q-74 0 -119 68q-40 60 -40 137q0 137 96 215q88 71 228 71q41 0 41 -14zM618 1429q0 -43 -27 -56q-5 -3 -12 -3q-120 -8 -174 -76
q-20 -25 -20 -56q0 -52 60.5 -105t60.5 -94q0 -38 -27.5 -62.5t-66.5 -24.5q-74 0 -119 68q-40 60 -40 137q0 137 96 215q88 71 228 71q41 0 41 -14z" />
    <glyph glyph-name="quotedblright" unicode="&#x201d;" horiz-adv-x="822" 
d="M959 1238q0 -137 -96 -215q-88 -71 -228 -71q-42 0 -42 14q0 41 23 55q7 4 17 5q118 8 172 75q21 26 21 57q0 51 -60.5 104t-60.5 94q0 38 28 62.5t66 24.5q75 0 120 -67q40 -59 40 -138zM599 1238q0 -137 -96 -215q-88 -71 -228 -71q-42 0 -42 14q0 41 23 55q7 4 17 5
q118 8 172 75q21 26 21 57q0 51 -60.5 104t-60.5 94q0 38 28 62.5t66 24.5q75 0 120 -67q40 -59 40 -138z" />
    <glyph glyph-name="quotedblbase" unicode="&#x201e;" horiz-adv-x="822" 
d="M726 -45q0 -137 -96 -215q-88 -71 -228 -71q-42 0 -42 14q0 41 23 55q7 4 17 5q118 8 172 75q21 26 21 57q0 51 -60.5 104t-60.5 94q0 38 28 62.5t66 24.5q75 0 120 -67q40 -59 40 -138zM366 -45q0 -137 -96 -215q-88 -71 -228 -71q-42 0 -42 14q0 41 23 55q7 4 17 5
q118 8 172 75q21 26 21 57q0 51 -60.5 104t-60.5 94q0 38 28 62.5t66 24.5q75 0 120 -67q40 -59 40 -138z" />
    <glyph glyph-name="dagger" unicode="&#x2020;" horiz-adv-x="982" 
d="M1039 920q0 -87 -104 -87q-56 0 -155 30q-104 31 -154 33q21 -193 90 -282q-56 -176 -68 -307q-27 -295 -27 -707q0 -9 -35 -9q-8 0 -8 9q0 412 -27 707q-12 131 -69 307q65 83 93 283l-51 -8q-30 -5 -129 -33q-80 -23 -132 -23q-104 0 -104 87t104 87q52 0 132 -23
q96 -28 128 -33l55 -8l-10 74q-6 41 -24 102q-32 105 -32 199q0 121 87 121t87 -121q0 -98 -32 -199q-19 -61 -24 -101l-9 -75l53 8q31 5 129 33q80 23 132 23q104 0 104 -87z" />
    <glyph glyph-name="daggerdbl" unicode="&#x2021;" horiz-adv-x="982" 
d="M966 109q0 -87 -104 -87q-82 0 -168 28q-53 17 -86 21l-51 6l8 -72q5 -47 20 -94q28 -89 28 -199q0 -121 -87 -121t-87 121q0 112 28 199q27 84 27 167l-50 -8q-22 -4 -126 -29q-76 -19 -128 -19q-104 0 -104 87t104 87q83 0 169 -28q54 -18 85 -21l54 -6l1 34
q5 157 -95 340h1q94 173 94 323q0 19 -2 53q-47 -7 -139 -29q-89 -28 -168 -28q-104 0 -104 87t104 87q82 0 168 -28q53 -17 86 -21l51 -6l-8 72q-5 48 -20 95q-28 89 -28 198q0 121 87 121t87 -121q0 -110 -28 -198q-27 -84 -27 -168q46 7 136 28q89 28 168 28
q104 0 104 -87t-104 -87q-82 0 -168 28q-54 17 -86 21l-54 6l-1 -34q-5 -157 95 -340h-1q-94 -173 -94 -323q0 -19 2 -53q47 7 139 29q89 28 168 28q104 0 104 -87z" />
    <glyph glyph-name="bullet" unicode="&#x2022;" horiz-adv-x="960" 
d="M800 633q0 -145 -102.5 -247.5t-247.5 -102.5t-247.5 102.5t-102.5 247.5t102.5 247.5t247.5 102.5t247.5 -102.5t102.5 -247.5z" />
    <glyph glyph-name="ellipsis" unicode="&#x2026;" horiz-adv-x="1472" 
d="M1434 127q0 -61 -37 -103q-39 -45 -99 -45q-106 0 -106 111q0 63 38.5 107.5t100.5 44.5q103 0 103 -115zM954 127q0 -61 -37 -103q-39 -45 -99 -45q-106 0 -106 111q0 63 38.5 107.5t100.5 44.5q103 0 103 -115zM474 127q0 -61 -37 -103q-39 -45 -99 -45
q-106 0 -106 111q0 63 38.5 107.5t100.5 44.5q103 0 103 -115z" />
    <glyph glyph-name="perthousand" unicode="&#x2030;" horiz-adv-x="2128" 
d="M2050 166q0 -217 -110 -399t-256 -182q-109 0 -169 105q-50 87 -50 202q0 209 103 381q113 188 260 188q110 0 171 -98q51 -82 51 -197zM717 1105q0 -217 -109 -399q-112 -182 -257 -182q-109 0 -169 105q-50 87 -50 202q0 209 103 381q113 188 260 188q110 0 171 -98
q51 -82 51 -197zM1416 1272q0 -6 -5 -13l-1244 -1630q-17 -22 -40 -22h-67q-18 0 -18 14q0 7 5 14l1244 1630q16 21 38 21h71q16 0 16 -14zM1380 166q0 -217 -110 -399t-256 -182q-109 0 -169 105q-50 87 -50 202q0 209 103 381q113 188 260 188q110 0 171 -98
q51 -82 51 -197zM1942 138q0 190 -140 190q-96 0 -164 -117q-65 -111 -65 -266q0 -81 28 -147q36 -85 103 -85q91 0 166 136q72 130 72 289zM608 1077q0 190 -139 190q-96 0 -164 -117q-65 -111 -65 -266q0 -81 28 -147q36 -85 103 -85q91 0 166 136q71 130 71 289z
M1272 138q0 190 -140 190q-96 0 -164 -117q-65 -111 -65 -266q0 -81 28 -147q36 -85 103 -85q91 0 166 136q72 130 72 289z" />
    <glyph glyph-name="guilsinglleft" unicode="&#x2039;" horiz-adv-x="604" 
d="M576 734q0 -6 -5 -11l-255 -275q140 -311 140 -313q0 -4 -14 -15t-18 -11l-6 3l-255 322q-8 10 -8 23q0 17 25 36l354 270q5 4 10 4q6 0 19 -13.5t13 -19.5z" />
    <glyph glyph-name="guilsinglright" unicode="&#x203a;" horiz-adv-x="604" 
d="M516 422q0 -18 -25 -37l-354 -270q-5 -4 -10 -4q-6 0 -19 14t-13 19t6 11l254 275q-140 311 -140 313q0 4 14 15t18 11l6 -3l255 -322q8 -10 8 -22z" />
    <glyph glyph-name="reversedsemicolon" unicode="&#x204f;" horiz-adv-x="512" 
d="M524 756q0 -57 -34 -96q-36 -42 -92 -42q-96 0 -96 101q0 59 35.5 100.5t93.5 41.5q93 0 93 -105zM463 139q0 -64 -68 -81q-83 -21 -105 -66q-13 -26 -13 -61q0 -74 98 -170q-3 -45 -43 -43q-187 149 -187 307q0 81 52 147q56 70 135 70q48 0 87 -27q44 -30 44 -76z" />
    <glyph glyph-name="parenrightsuperior" unicode="&#x207e;" horiz-adv-x="338" 
d="M427 1192q0 -109 -27 -204q-115 -405 -440 -630q-10 -7 -19 -7q-24 0 -24 30q0 37 22 60q20 18 60 56q80 78 136 169q177 287 177 584q0 200 -69 333q-4 8 -4 10q0 11 22 23t34 12q17 0 29 -14q47 -54 78 -201q25 -122 25 -221z" />
    <glyph glyph-name="Euro" unicode="&#x20ac;" horiz-adv-x="1365" 
d="M1315 1112q0 -9 -20 -98t-24 -96q-11 -21 -37 -21q-41 0 -41 20q0 9 3 28t3 28q0 80 -78 154q-105 100 -276 100q-198 0 -324 -137q-113 -123 -142 -321h708q40 0 40 -40t-40 -40h-715q-1 -22 -1 -37q0 -44 6 -93h680q40 0 40 -40t-40 -40h-666q42 -185 152 -301
q125 -132 303 -132q112 0 201 37q50 21 177 100q13 8 26 8q44 0 44 -45q0 -19 -19 -35q-184 -151 -423 -151q-241 0 -428 146t-235 373h-149q-40 0 -40 40t40 40h137q-2 24 -2 56q0 35 4 74h-139q-40 0 -40 40t40 40h152q52 237 241 389.5t438 152.5q278 0 435 -178
q9 -10 9 -21z" />
    <glyph glyph-name="trademark" unicode="&#x2122;" horiz-adv-x="1315" 
d="M1315 1389l-1 -4q-8 -36 -38 -36h-3q-31 0 -39 -41l-85 -430q-2 -10 -2 -20q0 -24 54 -24q21 0 21 -20q0 -39 -28 -39q-16 0 -48 2.5t-48 2.5q-17 0 -50 -2.5t-49 -2.5q-21 0 -21 23q0 36 44 36q21 0 29 42l64 323l-238 -384q-8 -13 -26 -13q-24 0 -26 22l-25 362
q-121 -329 -121 -337q0 -15 49 -15q21 0 21 -20q0 -39 -28 -39q-13 0 -40 2.5t-41 2.5t-41 -2.5t-41 -2.5q-22 0 -22 20q0 22 13 33q3 3 35 8q21 4 35 42l165 446q-10 21 -47 24q-33 3 -33 20q0 39 79 39q9 0 28 1.5t28 1.5q35 0 38 -44l27 -393l242 399q22 37 42 37
q8 0 25 -2.5t26 -2.5q10 0 28.5 2.5t28.5 2.5q19 0 19 -20zM681 1417q0 -6 -12 -49q-13 -46 -15 -56q-10 -55 -39 -55h-5q-27 0 -27 21q0 7 3 21t3 21q0 20 -28 20h-71q-20 0 -26 -24l-113 -439q-4 -16 -4 -23q0 -20 48 -20q20 0 20 -20q0 -39 -28 -39q-17 0 -52 2.5
t-53 2.5t-53.5 -2.5t-53.5 -2.5q-21 0 -21 20q0 37 39 38q45 2 56 44l116 447q2 8 2 15q0 2 -1 2h-67q-45 -1 -67 -1q-38 0 -50 -41.5t-43 -41.5q-28 0 -28 22q0 -9 21 72q3 23 14 68q6 19 31 19q26 0 29 -17t23 -17h357q19 0 32.5 17.5t40.5 17.5q22 0 22 -22z" />
  </font>
</defs>
</svg>
